Loading...
Error

Валерий Харламов. Дополнительное время. (Юрий Стааль) [2007 г., спорт, биография, DVDRip]

Статистика раздачи
Размер:  744 MB   |    Зарегистрирован:  3 года 6 месяцев   |    Скачан:  7 раз

Полного источника не было: 2 года 1 месяц

Сидов:  0  |  0 KB/s  ]   Личеров:  0  |  0 KB/s  ]

* - сиды/пиры с внешних источников

   
 
Автор Сообщение

матроскин Пол:Муж

15-Май-2013 11:45

Валерий Харламов. Дополнительное время.


Год выпуска: 2007
Жанр: спорт, биография
Страна: Россия
Режиссер: Юрий Стааль
В ролях: Алексей Чадов, Дмитрий Харатьян, Ольга Красько, Сергей Жарков, Наталья Чернявская, Дмитрий Аросьев, Алексей Кантур, Владимир Стержаков, Мила Махачева, Владимир Кузнецов
Сюжет фильма:
Это история жизни выдающегося советского хоккеиста Валерия Харламова. Говорят, что иногда люди способны предчувствовать свою смерть, тогда перед их глазами за короткий отрезок времени проходит вся жизнь, все наиболее значимые моменты, все дорогие человеку люди.
Сюжет картины и манера повествования резко отличается от всего того, что уже снято или написано на эту тему. Как обычный русский паренек, имеющий врожденный порок сердца и являющийся из-за дефекта речи вечной мишенью для острот своих сверстников, смог дважды стать Олимпийским чемпионом, восемь раз — Чемпионом мира, стать легендой отечественного хоккея и образцом для подражания нескольких поколений профессионалов и спортсменов-любителей? Что стояло за всеми этими, какой ценой это было достигнуто, и какую цену пришлось заплатить впоследствии?


Качество видео: DVDRip

Продолжительность: 01:30:56
Формат: avi
Видео: XviD, 720x400, 998 kbps
Аудио: русский, оригинал, MP3 2.0, 128 kbps

Код:

General
Complete name                    : C:\Users\Security\Desktop\Валерий Харламов.avi
Format                           : AVI
Format/Info                      : Audio Video Interleave
File size                        : 744 MiB
Duration                         : 1h 30mn
Overall bit rate                 : 1 144 Kbps

Video
ID                               : 0
Format                           : MPEG-4 Visual
Format profile                   : Simple@L3
Format settings, BVOP            : No
Format settings, QPel            : No
Format settings, GMC             : No warppoints
Format settings, Matrix          : Default (H.263)
Codec ID                         : XVID
Codec ID/Hint                    : XviD
Duration                         : 1h 30mn
Bit rate                         : 999 Kbps
Width                            : 720 pixels
Height                           : 400 pixels
Display aspect ratio             : 16/9
Frame rate                       : 25.000 fps
Resolution                       : 24 bits
Colorimetry                      : 4:2:0
Scan type                        : Progressive
Bits/(Pixel*Frame)               : 0.139
Stream size                      : 650 MiB (87%)
Writing library                  : XviD 1.2.1 (UTC 2008-12-04)

Audio
ID                               : 1
Format                           : MPEG Audio
Format version                   : Version 1
Format profile                   : Layer 3
Codec ID                         : 55
Codec ID/Hint                    : MP3
Duration                         : 1h 30mn
Bit rate mode                    : Constant
Bit rate                         : 128 Kbps
Channel(s)                       : 2 channels
Sampling rate                    : 48.0 KHz
Resolution                       : 16 bits
Stream size                      : 83.3 MiB (11%)
Alignment                        : Aligned on interleaves
Interleave, duration             : 24 ms (0.60 video frame)
Writing library                  : LAME3.98.2

picpicpicpicpicpic
Для увеличения картинки щелкните мышкой по превью

Этот торрент недоступен для скачивания без регистрации, однако доступен по публичной magnet-ссылке (источники с публичных трекеров). Перед использованием ссылки прочтите, пожалуйста Пользовательское соглашение, а также как можно дольше оставайтесь на раздаче! Для того, чтобы скачать сам торрент-файл (который видит больше источников), а также для того, чтобы поблагодарить релизера, вам необходимо зарегистрироваться. Если регистрироваться лень - вы можете также попробовать скачать релиз по нашим партнерским ссылкам ниже.

[underverse.su].t27513.torrent
Трекер: Зарегистрирован   [ 15.05.2013 11:45 ]  

Статус: проверено (by Паукан at 15.05.2013 11:49)
Поблагодарили: пока никто не поблагодарил...
Тип торрента: публичный - доступные источники с открытых трекеров: 
Размер: 744 MB (занимает 0,17 DVDR, для записи нужно 1 болванка DVDR/RW)
 
 

матроскин Пол:Муж

15-Май-2013 11:50





альфа Пол:Муж

18-Май-2013 07:51

Многоуважаемый Матроскин! огромное спасибо за фильм о великом хоккеисте Харламове В.Б.

Яндекс.Метрика powered by Sphinx


В Н И М А Н И Е
Сайт не распространяет и не хранит электронные версии произведений, а лишь бесплатно и без коммерческой выгоды (не требуя взамен платы,
SMS и т.д.) предоставляет доступ к создаваемому пользователями каталогу ссылок на торрент-файлы, которые содержат только списки хеш-сумм.
Убедительная просьба с жалобами обращаться напрямую к пользователю, разместившему торрент файл.

Вверх