Loading...
Error

Мрачные небеса / Dark Skies (Скотт Чарльз Стюарт) [2013 г., ужасы, фантастика, триллер, BDRip] Dub + Original + Sub(Eng) HQ Underverse

Статистика раздачи
Размер:  1,45 GB   |    Зарегистрирован:  3 года 6 месяцев   |    Скачан:  62 раза

Полного источника не было: 6 дней

Сидов:  0  |  0 KB/s  ]   Личеров:  0  |  0 KB/s  ]

* - сиды/пиры с внешних источников

   
 
Автор Сообщение

HQ Underverse 

15-Май-2013 07:40

Мрачные небеса / Dark Skies


Год выпуска: 2013
Жанр: ужасы, фантастика, триллер
Страна: США
Режиссер: Скотт Чарльз Стюарт
В ролях: Кери Рассел, Джош Хэмилтон, Дакота Гойо, Кадан Рокетт, Дж.К. Симмонс, Л.Дж. Бенет, Рич Хатчмэн, Минди Крист, Энни Турман, Джейк Уошберн
Сюжет фильма:
Странные вещи начинают происходить в обычной семье жителей пригорода. Электронные приборы без причины отключаются. Дети повсюду находят мертвых птиц.

В их дом проникают инопланетные существа, которые по какой то причине следят за семьей. Чем больше странных, мистических вещей начинает происходить в доме, тем быстрее становится ясно: загадочные существа, прилетевшие с другой планеты в поисках новой жизни, охотятся на детей, живущих там.

  • Мировая премьера: 21 февраля 2013
  • Российская премьера: 21 февраля 2013, «Top Film Distribution»

|
Качество видео: BDRip

Продолжительность: 01:37:08
Формат: avi
Видео: XviD, 720x304, 1747 kbps
Аудио #1: русский, дублированный [лицензия], AC3 5.1, 384 kbps
Аудио #2: английский, оригинал, AC3 5.1, 384 kbps (отдельным файлом: здесь)
Субтитры: внешние, SRT, английский

Код:

General
Complete name                    : G:\Мрачные небеса\Dark.Skies.2013.BDRip.XviD.AC3.Rus.D.HQ.Underverse.avi
Format                           : AVI
Format/Info                      : Audio Video Interleave
File size                        : 1.45 GiB
Duration                         : 1h 37mn
Overall bit rate                 : 2 140 Kbps
Writing application              : VirtualDubMod 1.5.10.2 (build 2540/release)
Writing library                  : VirtualDubMod build 2540/release

Video
ID                               : 0
Format                           : MPEG-4 Visual
Format profile                   : Streaming Video@L1
Format settings, BVOP            : Yes
Format settings, QPel            : No
Format settings, GMC             : No warppoints
Format settings, Matrix          : Custom
Muxing mode                      : Packed bitstream
Codec ID                         : XVID
Codec ID/Hint                    : XviD
Duration                         : 1h 37mn
Bit rate                         : 1 747 Kbps
Width                            : 720 pixels
Height                           : 304 pixels
Display aspect ratio             : 2.35
Frame rate                       : 23.976 fps
Resolution                       : 24 bits
Colorimetry                      : 4:2:0
Scan type                        : Progressive
Bits/(Pixel*Frame)               : 0.333
Stream size                      : 1.19 GiB (82%)
Writing library                  : XviD 64

Audio
ID                               : 1
Format                           : AC-3
Format/Info                      : Audio Coding 3
Codec ID                         : 2000
Duration                         : 1h 37mn
Bit rate mode                    : Constant
Bit rate                         : 384 Kbps
Channel(s)                       : 6 channels
Channel positions                : Front: L C R, Surround: L R, LFE
Sampling rate                    : 48.0 KHz
Stream size                      : 267 MiB (18%)
Alignment                        : Split accross interleaves
Interleave, duration             : 42 ms (1.00 video frame)
Interleave, preload duration     : 500 ms

General
Complete name                    : G:\Мрачные небеса\Dark.Skies.2013.BDRip.XviD.AC3.Rus.D.HQ.Underverse.ENG.ac3
Format                           : AC-3
Format/Info                      : Audio Coding 3
File size                        : 267 MiB
Duration                         : 1h 37mn
Overall bit rate                 : 384 Kbps

Audio
Format                           : AC-3
Format/Info                      : Audio Coding 3
Duration                         : 1h 37mn
Bit rate mode                    : Constant
Bit rate                         : 384 Kbps
Channel(s)                       : 6 channels
Channel positions                : Front: L C R, Surround: L R, LFE
Sampling rate                    : 48.0 KHz
Stream size                      : 267 MiB (100%)

Релиз группы:

picpicpic
Для увеличения картинки щелкните мышкой по превью

Этот торрент недоступен для скачивания без регистрации, однако доступен по публичной magnet-ссылке (источники с публичных трекеров). Перед использованием ссылки прочтите, пожалуйста Пользовательское соглашение, а также как можно дольше оставайтесь на раздаче! Для того, чтобы скачать сам торрент-файл (который видит больше источников), а также для того, чтобы поблагодарить релизера, вам необходимо зарегистрироваться. Если регистрироваться лень - вы можете также попробовать скачать релиз по нашим партнерским ссылкам ниже.

[underverse.su].t27505.torrent
Трекер: Зарегистрирован   [ 15.05.2013 07:40 ]  

Статус: проверено (by HQ Underverse at 15.05.2013 07:40)
Поблагодарили: 3 человека
Тип торрента: публичный - доступные источники с открытых трекеров: 
Размер: 1,45 GB (занимает 1/3 DVDR, для записи нужно 1 болванка DVDR/RW)
 
 
Похожие темы
Форум Тема Автор Торрент Отв. Посл. сооб.
Зарубежное кино [DVDRip, Low-Res HDRip, и т.д.] Мрачные небеса / Dark Skies (Скотт Чарльз Стюарт / Scott Charles Stewart) [2013 г., ужасы, фантастика, триллер, DVDRip] Dub 90ytr90
0 | 0

0 | 4187

96

29.03.2013 20:05

Зарубежное кино [DVDRip, Low-Res HDRip, и т.д.] Мрачные небеса / Dark Skies (Скотт Чарльз Стюарт) [2013 г., ужасы, фантастика, триллер, DVDRip-AVC] Dub Чертёнок
11 | 0

1 | 3392

22

21.05.2013 18:01

Зарубежное кино [DVDRip, Low-Res HDRip, и т.д.] Мрачные небеса / Dark Skies (Скотт Стюарт / Scott Stewart) [2013 г., Ужасы, фантастика, триллер, HDRip] Dub Gaarochi
0 | 0

2 | 1792

95

08.05.2013 15:09

Зарубежное кино [DVDRip, Low-Res HDRip, и т.д.] Мрачные небеса / Dark Skies (Скотт Чарльз Стюарт / Scott Charles Stewart) [2013 г., ужасы, фантастика, триллер, BDRip-AVC] Dub + Eng 90ytr90
9 | 0

0 | 635

15

07.05.2013 19:18

Зарубежное кино [DVD / HDDVD / BD / Remux] Мрачные небеса / Dark Skies (Скотт Чарльз Стюарт) [2013 г., ужасы, фантастика, триллер, Blu-Ray Remux 1080p ] Dub + Original (Eng) + Sub (Eng) TERRAN
1 | 0

0 | 595

8

08.05.2013 12:24

Зарубежное кино [HDDVDRip / BDRip / WEB-DL / HDTV 1080/720р] Мрачные небеса / Dark Skies (Скотт Стюарт / Scott Stewart) [2013 г., Ужасы, фантастика, триллер, BDRip 720p] Dub + Original Gaarochi
4 | 0

0 | 382

5

07.05.2013 07:37

Зарубежное кино [HDDVDRip / BDRip / WEB-DL / HDTV 1080/720р] Мрачные небеса / Dark Skies (Скотт Стюарт / Scott Stewart) [2012 г., Ужасы, фантастика, триллер, BDRip 1080p] Dub + Original Gaarochi
1 | 0

0 | 417

7

07.05.2013 19:17


Яндекс.Метрика powered by Sphinx


В Н И М А Н И Е
Сайт не распространяет и не хранит электронные версии произведений, а лишь бесплатно и без коммерческой выгоды (не требуя взамен платы,
SMS и т.д.) предоставляет доступ к создаваемому пользователями каталогу ссылок на торрент-файлы, которые содержат только списки хеш-сумм.
Убедительная просьба с жалобами обращаться напрямую к пользователю, разместившему торрент файл.

Вверх