Loading...
Error

Побочный эффект / Side Effects (Стивен Содерберг / Steven Soderbergh) [2013 г., Триллер, драма, криминал, BDRip-AVC] Dub + Original

Статистика раздачи
Размер:  2,19 GB   |    Зарегистрирован:  3 года 6 месяцев   |    Скачан:  40 раз

Полного источника не было: 1 год 10 месяцев

Сидов:  0  |  0 KB/s  ]   Личеров:  0  |  0 KB/s  ]

* - сиды/пиры с внешних источников

   
 
Автор Сообщение

Gaarochi Пол:Муж

10-Май-2013 16:40

Side Effects
«Одна доза изменит твою жизнь»


Год выпуска: 2013
Жанр: Триллер, драма, криминал
Страна: США / Di Bonaventura Pictures, Endgame Entertainment
Режиссер: Стивен Содерберг / Steven Soderbergh
В ролях: Джуд Лоу, Руни Мара, Кэтрин Зета-Джонс, Ченнинг Татум, Кармен Пелаес, Марин Айрлэнд, Полли Дрэйпер, Аральдо Альварес, Джеймс Мартинез, Владимир Версейл, Жаклин Антарамиан, Мишель Вергара Мур, Кэти Лоус, Дэвид Костабайл, Мэми Гаммер, Стивен Платт, Виктор Круз, Винесса Шоу, Элизабет Родригез, Питер Фридман, Андреа Богарт, Лайла Робинс
Сюжет фильма:
Жизнь главной героини Эмили Хоукинс пошла под откос, когда её мужа посадили в тюрьму. Вначале она пыталась спастись от депрессии своими силами, горстями глотая успокоительное. После того, как стало понятно, что это не поможет, Эмили не оставалось другого выхода кроме отправления в психиатрическую лечебницу к добрым и заботливым людям в белых халатах. Теперь главная героиня борется со своими внутренними демонами уже не одна — справиться с угнетённым состоянием ей помогают два лучших доктора клиники, а также экспериментальные препараты, обладающие довольно странными побочными эффектами. Не получится ли так, что все внутренние страхи Эмили вместо того, чтобы исчезнуть, вырвутся наружу?


  • Мировая премьера: 8 февраля 2013
  • Российская премьера: 28 февраля 2013, «Top Film Distribution»
  • Рейтинг MPAA: R лицам до 17 лет обязательно присутствие взрослого


Качество видео: BDRip-AVC [Исходник: Side Effects 2013 1080p BluRay AVC DTS-HD MA 5.1-PublicHD]
Продолжительность: 01:41:33
Формат: MKV
Видео: x264, 1248x676, 2044 Кbps
Аудио #1: русский, дублированный [лицензия] R5, 448 kbps
Аудио #2: английский, оригинал, 448 kbps
Субтитры: тип: вшитые отключаемые, английский, формат: SRT

Рип от:

Код:

Общее
 Уникальный идентификатор : 180203544464367707621279836599326910974 (0x8791F0B35CF670958C511A2EBA7CA9FE)
 Полное имя : Pobochnyj.Effekt.2013.D.BDRip.x264.potroks.mkv
 Формат : Matroska
 Версия формата : Version 4 / Version 2
 Размер файла : 2,19 Гбайт
 Продолжительность : 1 ч. 46 м.
 Общий поток : 2941 Кбит/сек
 Название фильма : -=POTROKS=-
 Дата кодирования : UTC 2013-05-10 12:33:03
 Программа кодирования : mkvmerge v5.9.0 ('On The Loose') built on Dec 15 2012 16:39:58
 Библиотека кодирования : libebml v1.3.0 + libmatroska v1.4.0

 Видео
 Идентификатор : 1
 Формат : AVC
 Формат/Информация : Advanced Video Codec
 Профиль формата : High@L4.1
 Параметр CABAC формата : Да
 Параметр ReFrames формата : 11 кадров
 Идентификатор кодека : V_MPEG4/ISO/AVC
 Продолжительность : 1 ч. 46 м.
 Битрейт : 2044 Кбит/сек
 Ширина : 1248 пикселей
 Высота : 676 пикселей
 Соотношение сторон : 1,85:1
 Режим частоты кадров : Постоянный
 Частота кадров : 23,976 кадра/сек
 Цветовое пространство : YUV
 Субдискретизация насыщенности : 4:2:0
 Битовая глубина : 8 бит
 Тип развёртки : Прогрессивная
 Бит/(Пиксели*Кадры) : 0.101
 Размер потока : 1,48 Гбайт (68%)
 Заголовок : Side Effects
 Библиотека кодирования : x264 core 125 r2208 d9d2288
 Настройки программы : cabac=1 / ref=11 / deblock=1:-2:-1 / analyse=0x3:0x133 / me=umh / subme=11 / psy=1 / psy_rd=1.07:0.02 / mixed_ref=1 / me_range=32 / chroma_me=1 / trellis=2 / 8x8dct=1 / cqm=0 / deadzone=21,11 / fast_pskip=0 / chroma_qp_offset=-3 / threads=9 / lookahead_threads=1 / sliced_threads=0 / nr=0 / decimate=1 / interlaced=0 / bluray_compat=0 / constrained_intra=0 / bframes=12 / b_pyramid=2 / b_adapt=2 / b_bias=0 / direct=3 / weightb=1 / open_gop=0 / weightp=2 / keyint=240 / keyint_min=23 / scenecut=40 / intra_refresh=0 / rc_lookahead=150 / rc=2pass / mbtree=1 / bitrate=2044 / ratetol=1.0 / qcomp=0.70 / qpmin=0 / qpmax=69 / qpstep=4 / cplxblur=20.0 / qblur=0.5 / vbv_maxrate=50000 / vbv_bufsize=65000 / nal_hrd=none / ip_ratio=1.35 / aq=1:0.80
 Язык : English
 Default : Да
 Forced : Нет

 Аудио #1
 Идентификатор : 2
 Формат : AC-3
 Формат/Информация : Audio Coding 3
 Расширение режима : CM (complete main)
 Параметр Endianness формата : Big
 Идентификатор кодека : A_AC3
 Продолжительность : 1 ч. 46 м.
 Вид битрейта : Постоянный
 Битрейт : 448 Кбит/сек
 Каналы : 6 каналов
 Расположение каналов : Front: L C R, Side: L R, LFE
 Частота : 48,0 КГц
 Битовая глубина : 16 бит
 Метод сжатия : С потерями
 Размер потока : 341 Мбайт (15%)
 Заголовок : Dub | DD 5.1 @ 448 kbps - R5
 Язык : Russian
 Default : Да
 Forced : Да

 Аудио #2
 Идентификатор : 3
 Формат : AC-3
 Формат/Информация : Audio Coding 3
 Расширение режима : CM (complete main)
 Параметр Endianness формата : Big
 Идентификатор кодека : A_AC3
 Продолжительность : 1 ч. 46 м.
 Вид битрейта : Постоянный
 Битрейт : 448 Кбит/сек
 Каналы : 6 каналов
 Расположение каналов : Front: L C R, Side: L R, LFE
 Частота : 48,0 КГц
 Битовая глубина : 16 бит
 Метод сжатия : С потерями
 Размер потока : 341 Мбайт (15%)
 Заголовок : Original | DD 5.1 @ 448 kbps
 Язык : English
 Default : Нет
 Forced : Нет

 Текст
 Идентификатор : 4
 Формат : UTF-8
 Идентификатор кодека : S_TEXT/UTF8
 Идентификатор кодека/Информация : UTF-8 Plain Text
 Язык : English
 Default : Нет
 Forced : Нет

 Меню
 00:00:00.000 : en:00:00:00.000
 00:05:24.324 : en:00:05:24.324
 00:07:59.437 : en:00:07:59.437
 00:13:06.452 : en:00:13:06.452
 00:18:22.935 : en:00:18:22.935
 00:23:39.335 : en:00:23:39.335
 00:30:36.960 : en:00:30:36.960
 00:34:43.540 : en:00:34:43.540
 00:37:39.632 : en:00:37:39.632
 00:44:33.921 : en:00:44:33.921
 00:51:34.717 : en:00:51:34.717
 00:58:22.999 : en:00:58:22.999
 01:03:43.153 : en:01:03:43.153
 01:09:26.996 : en:01:09:26.996
 01:15:53.424 : en:01:15:53.424
 01:21:20.292 : en:01:21:20.292
 01:26:27.766 : en:01:26:27.766
 01:34:25.159 : en:01:34:25.159
 01:38:37.745 : en:01:38:37.745
 01:43:27.618 : en:01:43:27.618

picpicpic
Для увеличения картинки щелкните мышкой по превью

Этот торрент доступен для скачивания без регистрации. Перед тем, как его скачать, прочтите, пожалуйста Пользовательское соглашение, а также как можно дольше оставайтесь на раздаче! Также вы можете выкладывать этот торрент или ссылку на него на других интернет-ресурсах, в том числе на торрент трекерах. Для получение более подробной информации о релизе, а также для того, чтобы поблагодарить релизера, вам необходимо зарегистрироваться.

[underverse.su].t27386.torrent
Трекер: Зарегистрирован   [ 10.05.2013 16:40 ]   [ торрент доступен для скачивания без регистрации ]

Статус: проверено (by Чертёнок at 10.05.2013 17:12)
Поблагодарили: 1 человек
Тип торрента: публичный - доступные источники с открытых трекеров: 
Размер: 2,19 GB (занимает 1/2 DVDR, для записи нужно 1 болванка DVDR/RW)
 
 
Похожие темы
Форум Тема Автор Торрент Отв. Посл. сооб.
Зарубежное кино [DVDRip, Low-Res HDRip, и т.д.] Побочный эффект / Side Effects (Стивен Содерберг / Steven Soderbergh) [2013 г., триллер, драма, криминал, DVDRip] Dub 90ytr90
46 | 6

0 | 496

34

29.03.2013 18:24

Зарубежное кино [DVDRip, Low-Res HDRip, и т.д.] Побочный эффект / Side Effects (Стивен Содерберг) [2013 г., триллер, драма, криминал, HDRip] Dub [R5] RG NewCinema
1 | 0

0 | 998

16

08.05.2013 07:17

Зарубежное кино [DVDRip, Low-Res HDRip, и т.д.] Побочный эффект / Side Effects (Стивен Содерберг / Steven Soderbergh) [2013, США, триллер, драма, криминал, HDRip-AVC] Dub Garnett
13 | 0

0 | 911

14

28.05.2013 05:56

Зарубежное кино [DVDRip, Low-Res HDRip, и т.д.] Побочный эффект / Side Effects (Стивен Содерберг / Steven Soderbergh) [2013 г., триллер, драма, криминал, BDRip] Dub + Original (Eng) + Sub (Rus, Eng) 90ytr90
107 | 3

0 | 2126

8

07.05.2014 15:00

Зарубежное кино [DVDRip, Low-Res HDRip, и т.д.] Побочный эффект / Side Effects (Стивен Содерберг / Steven Soderbergh) [2013 г., триллер, драма, криминал, BDRip-AVC] Dub 90ytr90
6 | 0

0 | 2218

13

07.05.2014 15:14

Зарубежное кино [HDDVDRip / BDRip / WEB-DL / HDTV 1080/720р] Побочный эффект / Side Effects (Стивен Содерберг / Steven Soderbergh) [2013 г., Триллер, драма, криминал, BDRip 720p] Dub + Original Gaarochi
2 | 0

0 | 445

11

09.05.2013 16:42

Зарубежное кино [HDDVDRip / BDRip / WEB-DL / HDTV 1080/720р] Побочный эффект / Side Effects (Стивен Содерберг / Steven Soderbergh) [2013 г., Триллер, драма, криминал, BDRip 1080p] Dub + Original Gaarochi
9 | 0

0 | 477

8

09.05.2013 16:58

Зарубежное кино [HDDVDRip / BDRip / WEB-DL / HDTV 1080/720р] Побочный эффект / Side Effects (Стивен Содерберг / Steven Soderbergh) [2013 г., триллер, драма, криминал, BDRip 1080p] Dub + Original (Eng) + Sub (Rus, Eng) 90ytr90
23 | 0

0 | 153

4

08.11.2016 10:40

Зарубежное кино [HDDVDRip / BDRip / WEB-DL / HDTV 1080/720р] Побочный эффект / Side Effects (Стивен Содерберг / Steven Soderbergh) [2013 г., триллер, драма, криминал, BDRip 720p] Dub + Original (Eng) + Sub (Rus, Eng) 90ytr90
20 | 4

0 | 168

1

08.11.2016 10:31


Яндекс.Метрика powered by Sphinx


В Н И М А Н И Е
Сайт не распространяет и не хранит электронные версии произведений, а лишь бесплатно и без коммерческой выгоды (не требуя взамен платы,
SMS и т.д.) предоставляет доступ к создаваемому пользователями каталогу ссылок на торрент-файлы, которые содержат только списки хеш-сумм.
Убедительная просьба с жалобами обращаться напрямую к пользователю, разместившему торрент файл.

Вверх