Loading...
Error

Дитя / The Child (Жолт Бач / Zsolt Bács) [2012 г., Триллер, BDRip-AVC] DVO + Original

Статистика раздачи
Размер:  2,18 GB   |    Зарегистрирован:  3 года 6 месяцев   |    Скачан:  13 раз

Полного источника не было: 3 года

Сидов:  0  |  0 KB/s  ]   Личеров:  0  |  0 KB/s  ]

* - сиды/пиры с внешних источников

   
 
Автор Сообщение

Gaarochi Пол:Муж

10-Май-2013 11:20

Дитя / The Child
«I'm Simon - I'm ten years old - I'm a serial killer...»


Год выпуска: 2012
Жанр: Триллер
Страна: Германия / Braindogs Entertainment,Rat Pack Filmproduktion GmbH,YMC Films.
Режиссер: Жолт Бач / Zsolt Bács
В ролях: Эрик Робертс, Кристиан Траумер, Бен Бекер, Питер Грин, Санни Мабри, Ивонн Мария Шефер, Клемен Шик, Рейнер Шёне, Даниэла Циглер, Дитер Ландурис

Сюжет фильма:
Известный адвокат Роберт Стерн знакомится с десятилетним мальчиком Саймоном. У Саймона опухоль мозга и жить ему осталось недолго, но он чувствует, что у него особая миссия - ему предстоит убить плохого человека. Каково же удивление Роберта, когда мальчик приводит его прямиком к трупу человека, которого он якобы убил пятнадцать лет назад. И это лишь начало целой череды загадочных событий, ожидающих героев этого фильма на пути к разгадке зловещей тайны.


  • Мировая премьера: 18 октября 2012


Качество видео: BDRip-AVC [Исходник: Blu-Ray Remux]
Продолжительность: 01:58:00
Формат: MKV
Видео: x264, 1084x454, 1736 Кbps
Аудио #1: русский, двухголосый закадровый [любительский], AC3 5.1, 448 kbps
Аудио #2: английский, оригинал, AC3 5.1, 448 kbps

Код:

Общее
 Уникальный идентификатор : 175326240140451000023456020731924204938 (0x83E69B08195D7CB18D6864CE158A4D8A)
 Полное имя : Ditja.2012.L2.BDRip.x264.potroks.mkv
 Формат : Matroska
 Версия формата : Version 2
 Размер файла : 2,18 Гбайт
 Продолжительность : 1 ч. 58 м.
 Общий поток : 2631 Кбит/сек
 Название фильма : -=POTROKS=-
 Дата кодирования : UTC 2013-05-09 08:26:32
 Программа кодирования : mkvmerge v5.9.0 ('On The Loose') built on Dec 15 2012 16:39:58
 Библиотека кодирования : libebml v1.3.0 + libmatroska v1.4.0

Видео
 Идентификатор : 1
 Формат : AVC
 Формат/Информация : Advanced Video Codec
 Профиль формата : High@L4.1
 Параметр CABAC формата : Да
 Параметр ReFrames формата : 11 кадров
 Идентификатор кодека : V_MPEG4/ISO/AVC
 Продолжительность : 1 ч. 58 м.
 Битрейт : 1736 Кбит/сек
 Ширина : 1084 пикселя
 Высота : 454 пикселя
 Соотношение сторон : 2,40:1
 Режим частоты кадров : Постоянный
 Частота кадров : 24,000 кадра/сек
 Цветовое пространство : YUV
 Субдискретизация насыщенности : 4:2:0
 Битовая глубина : 8 бит
 Тип развёртки : Прогрессивная
 Бит/(Пиксели*Кадры) : 0.147
 Размер потока : 1,40 Гбайт (64%)
 Заголовок : The Child
 Библиотека кодирования : x264 core 125 r2208 d9d2288
 Настройки программы : cabac=1 / ref=11 / deblock=1:-2:-2 / analyse=0x3:0x133 / me=umh / subme=11 / psy=1 / psy_rd=1.01:0.00 / mixed_ref=1 / me_range=32 / chroma_me=1 / trellis=2 / 8x8dct=1 / cqm=0 / deadzone=21,11 / fast_pskip=0 / chroma_qp_offset=-2 / threads=9 / lookahead_threads=1 / sliced_threads=0 / nr=0 / decimate=1 / interlaced=0 / bluray_compat=0 / constrained_intra=0 / bframes=12 / b_pyramid=2 / b_adapt=2 / b_bias=0 / direct=3 / weightb=1 / open_gop=0 / weightp=2 / keyint=240 / keyint_min=23 / scenecut=40 / intra_refresh=0 / rc_lookahead=150 / rc=2pass / mbtree=1 / bitrate=1736 / ratetol=1.0 / qcomp=0.70 / qpmin=0 / qpmax=69 / qpstep=4 / cplxblur=20.0 / qblur=0.5 / vbv_maxrate=20000 / vbv_bufsize=22500 / nal_hrd=none / ip_ratio=1.35 / aq=1:0.80
 Язык : English
 Default : Да
 Forced : Нет

Аудио #1
 Идентификатор : 2
 Формат : AC-3
 Формат/Информация : Audio Coding 3
 Расширение режима : CM (complete main)
 Параметр Endianness формата : Big
 Идентификатор кодека : A_AC3
 Продолжительность : 1 ч. 58 м.
 Вид битрейта : Постоянный
 Битрейт : 448 Кбит/сек
 Каналы : 6 каналов
 Расположение каналов : Front: L C R, Side: L R, LFE
 Частота : 48,0 КГц
 Битовая глубина : 16 бит
 Метод сжатия : С потерями
 Размер потока : 381 Мбайт (17%)
 Заголовок : Любительский двухголосый
 Язык : Russian
 Default : Нет
 Forced : Нет

Аудио #2
 Идентификатор : 3
 Формат : AC-3
 Формат/Информация : Audio Coding 3
 Расширение режима : CM (complete main)
 Параметр Endianness формата : Big
 Идентификатор кодека : A_AC3
 Продолжительность : 1 ч. 58 м.
 Вид битрейта : Постоянный
 Битрейт : 448 Кбит/сек
 Каналы : 6 каналов
 Расположение каналов : Front: L C R, Side: L R, LFE
 Частота : 48,0 КГц
 Битовая глубина : 16 бит
 Метод сжатия : С потерями
 Размер потока : 381 Мбайт (17%)
 Заголовок : Original | DD 5.1 @ 448 kbps
 Язык : English
 Default : Нет
 Forced : Нет

Меню
 00:00:00.000 : en:00:00:00.000
 00:11:48.833 : en:00:11:48.833
 00:20:28.708 : en:00:20:28.708
 00:29:54.083 : en:00:29:54.083
 00:39:50.250 : en:00:39:50.250
 00:50:00.250 : en:00:50:00.250
 00:57:52.042 : en:00:57:52.042
 01:08:52.542 : en:01:08:52.542
 01:17:36.667 : en:01:17:36.667
 01:27:47.417 : en:01:27:47.417
 01:41:21.000 : en:01:41:21.000

picpicpic
Для увеличения картинки щелкните мышкой по превью

Этот торрент доступен для скачивания без регистрации. Перед тем, как его скачать, прочтите, пожалуйста Пользовательское соглашение, а также как можно дольше оставайтесь на раздаче! Также вы можете выкладывать этот торрент или ссылку на него на других интернет-ресурсах, в том числе на торрент трекерах. Для получение более подробной информации о релизе, а также для того, чтобы поблагодарить релизера, вам необходимо зарегистрироваться.

[underverse.su].t27380.torrent
Трекер: Зарегистрирован   [ 10.05.2013 11:20 ]   [ торрент доступен для скачивания без регистрации ]

Статус: проверено (by Чертёнок at 10.05.2013 14:25)
Поблагодарили: 1 человек
Тип торрента: публичный - доступные источники с открытых трекеров: 
Размер: 2,18 GB (занимает 1/2 DVDR, для записи нужно 1 болванка DVDR/RW)
 
 
Похожие темы
Форум Тема Автор Торрент Отв. Посл. сооб.
Зарубежное кино [DVDRip, Low-Res HDRip, и т.д.] Дитя / The Child (Жолт Бач) [2012 г., триллер, HDRip] DVO 90ytr90
1 | 0

0 | 708

15

24.03.2013 17:11

Зарубежное кино [DVDRip, Low-Res HDRip, и т.д.] Дитя / The Child (Жолт Бач) [2012 г., триллер, HDRip] DVO 90ytr90
0 | 0

0 | 261

8

24.03.2013 17:14


Яндекс.Метрика powered by Sphinx


В Н И М А Н И Е
Сайт не распространяет и не хранит электронные версии произведений, а лишь бесплатно и без коммерческой выгоды (не требуя взамен платы,
SMS и т.д.) предоставляет доступ к создаваемому пользователями каталогу ссылок на торрент-файлы, которые содержат только списки хеш-сумм.
Убедительная просьба с жалобами обращаться напрямую к пользователю, разместившему торрент файл.

Вверх