Loading...
Error

Спасти рядового Райана / Saving Private Ryan (Стивен Спилберг /Steven Spielberg) [1998 г., боевик, драма, военный, история, BDRip] Dub

Статистика раздачи
Размер:  2,16 GB   |    Зарегистрирован:  3 года 6 месяцев   |    Скачан:  23 раза

Полного источника не было: 29 дней

Сидов:  0  |  0 KB/s  ]   Личеров:  0  |  0 KB/s  ]

* - сиды/пиры с внешних источников

   
 
Автор Сообщение

Gaarochi Пол:Муж

10-Май-2013 07:15

Спасти рядового Райана / Saving Private Ryan
«The movie that inspired to the world to remember»
Год выпуска: 1998
Жанр: боевик, драма, военный, история
Страна: США
Режиссер: Стивен Спилберг /Steven Spielberg
В ролях: Том Хэнкс, Том Сайзмор, Эдвард Бёрнс, Барри Пеппер, Адам Голдберг, Вин Дизель, Джованни Рибизи, Джереми Дэвис, Мэтт Дэймон, Тед Дэнсон

Сюжет фильма:
Капитан Джон Миллер получает тяжелое задание. Вместе с отрядом из восьми человек Миллер должен отправиться в тыл врага на поиски рядового Джеймса Райана, три родных брата которого почти одновременно погибли на полях сражений.


  • Мировая премьера: 24 июля 1998
  • Российская премьера: 9 октября 1998
  • Рейтинг MPAA: R лицам до 17 лет обязательно присутствие взрослого




Качество видео: BDRip
Продолжительность: 02:48:21
Формат: AVI
Видео: XviD, 720x384, 1385 kbps
Аудио: русский, дублированный [лицензия], AC3 5.1, 448 kbps

Рип от: nigoz

Код:

D:torrentgotovoeSaving Private Ryan (1998) [nigoz].avi
 General
 Complete name : D:torrentgotovoeSaving Private Ryan (1998) [nigoz].avi
 Format : AVI
 Format/Info : Audio Video Interleave
 Format profile : OpenDML
 File size : 2.16 GiB
 Duration : 2h 48mn
 Overall bit rate : 1 840 Kbps
 Director : nigoz
 Original source form/Distributed by : BDRemux 1080p
 Writing library : VirtualDub build 32559/release
 Copyright : torrents.by
 Video #0
 ID : 0
 Format : MPEG-4 Visual
 Format profile : AdvancedSimple@L5
 Format settings, BVOP : Yes
 Format settings, QPel : No
 Format settings, GMC : No warppoints
 Format settings, Matrix : Default (MPEG)
 Codec ID : XVID
 Codec ID/Hint : XviD
 Duration : 2h 48mn
 Bit rate : 1 385 Kbps
 Width : 720 pixels
 Height : 384 pixels
 Display aspect ratio : 1.875
 Frame rate : 23.976 fps
 Resolution : 24 bits
 Colorimetry : 4:2:0
 Scan type : Progressive
 Bits/(Pixel*Frame) : 0.208
 Stream size : 1.62 GiB (75%)
 Writing library : XviD 1.2.1 (UTC 2008-12-04)
 Audio #1
 ID : 1
 Format : AC-3
 Format/Info : Audio Coding 3
 Codec ID : 2000
 Duration : 2h 48mn
 Bit rate mode : Constant
 Bit rate : 448 Kbps
 Channel(s) : 6 channels
 Channel positions : Front: L C R, Surround: L R, LFE
 Sampling rate : 48.0 KHz
 Stream size : 539 MiB (24%)
 Alignment : Split accross interleaves
 Interleave, duration : 42 ms (1.00 video frame)
 Interleave, preload duration : 500 ms

picpicpic
Для увеличения картинки щелкните мышкой по превью

Этот торрент доступен для скачивания без регистрации. Перед тем, как его скачать, прочтите, пожалуйста Пользовательское соглашение, а также как можно дольше оставайтесь на раздаче! Также вы можете выкладывать этот торрент или ссылку на него на других интернет-ресурсах, в том числе на торрент трекерах. Для получение более подробной информации о релизе, а также для того, чтобы поблагодарить релизера, вам необходимо зарегистрироваться.

[underverse.su].t27369.torrent
Трекер: Зарегистрирован   [ 10.05.2013 07:15 ]   [ торрент доступен для скачивания без регистрации ]

Статус: проверено (by Печаль'ka at 10.05.2013 09:00)
Поблагодарили: 1 человек
Тип торрента: публичный - доступные источники с открытых трекеров: 
Размер: 2,16 GB (занимает 0,49 DVDR, для записи нужно 1 болванка DVDR/RW)
 
 
Похожие темы
Форум Тема Автор Торрент Отв. Посл. сооб.
* Зарубежное кино [DVDRip, Low-Res HDRip, и т.д.] Спасти рядового Райана (Saving Private Ryan) Чадов (Стивен Спилберг) [1998 г., военный, BDRip] AVO sanchillo

1 | 440

01.08.2015 13:35

Архив Спасти рядового Райана / Saving Private Ryan (1998) DvDRip (Стивен Спилберг) [1998 г., Военный, Боевик, Драма, DVDRip] Dmitriy
0 | 0

3 | 1169

12

08.10.2010 21:24

Архив Спасти рядового Райана / Врятувати рядового Райана / Saving Private Ryan (Стивен Спилберг) [1998 г., боевик, драма, военный, HDTVRip] Паукан
0 | 0

5 | 1769

8

16.06.2011 08:09

Архив Спасти рядового Райана / Saving Private Rayan (Стивен Спилберг) [1998 г., боевик, драма, военный, HDTVRip] Mahone
0 | 0

3 | 1940

0

16.06.2011 08:09


Яндекс.Метрика powered by Sphinx


В Н И М А Н И Е
Сайт не распространяет и не хранит электронные версии произведений, а лишь бесплатно и без коммерческой выгоды (не требуя взамен платы,
SMS и т.д.) предоставляет доступ к создаваемому пользователями каталогу ссылок на торрент-файлы, которые содержат только списки хеш-сумм.
Убедительная просьба с жалобами обращаться напрямую к пользователю, разместившему торрент файл.

Вверх