Loading...
Error

Гость / The Caller (Мэттью Паркхилл / Matthew Parkhill) [2011 г., Триллер, детектив, BDRip-AVC] MVO + Original R5

Статистика раздачи
Размер:  2,18 GB   |    Зарегистрирован:  3 года 6 месяцев   |    Скачан:  3 раза

Полного источника не было: 1 год 9 месяцев

Сидов:  0  |  0 KB/s  ]   Личеров:  0  |  0 KB/s  ]

* - сиды/пиры с внешних источников

   
 
Автор Сообщение

Gaarochi Пол:Муж

09-Май-2013 20:16

Гость / The Caller
«Some calls are best left unanswered.»


Год выпуска: 2011
Жанр: Триллер, детектив
Страна: Великобритания , Пуэрто Рико / Alcove Entertainment, Head Gear Films, Pimienta, Salt Company International
Режиссер: Мэттью Паркхилл / Matthew Parkhill
В ролях: Рашель Лефевр, Стивен Мойер, Луис Гузман, Эд Куинн, Лорна Рэвер, Марисе Альварес, Альфредо Де Куэсада, Корделия Гонзалез, Брайан Тестер, Арис Межиа

Сюжет фильма:
Переживания после развода для Мэри Ки усугубляются чередой странных звонков от таинственного незнакомца. Скоро ей начинает чудиться, что некто проникает в дом без ее ведома. Но самое ужасное происходит, когда Мэри понимает, что этот некто звонит из прошлого…


  • Мировая премьера: 15 апреля 2011
  • Российская премьера: 15 апреля 2013, «Новый Диск»
  • Рейтинг MPAA: R лицам до 17 лет обязательно присутствие взрослого


Качество видео: BDRip-AVC
Продолжительность: 01:31:24
Формат: MKV
Видео: x264, 1280x720, 2529 Кbps
Аудио #1: русский, многоголосый закадровый [профессиональный] R5, AC3 5.1, 448.00 kbps
Аудио #2: английский, оригинал, AC3 5.1, 448.00 kbps
Субтитры #1: тип: вшитые отключаемые, русский, формат: SRT
Субтитры #2: тип: вшитые отключаемые, английский, формат: SRT

Рип от:

Код:

Общее
 Уникальный идентификатор : 253071670145690515083965161272531264710 (0xBE63D4ACC0320BF78FD8DB034B7CA4C6)
 Полное имя : Gost'.2011.P.BDRip.x264.potroks.mkv
 Формат : Matroska
 Версия формата : Version 4 / Version 2
 Размер файла : 2,18 Гбайт
 Продолжительность : 1 ч. 31 м.
 Общий поток : 3421 Кбит/сек
 Название фильма : -=POTROKS=-
 Дата кодирования : UTC 2013-05-09 13:19:27
 Программа кодирования : mkvmerge v5.9.0 ('On The Loose') built on Dec 15 2012 16:39:58
 Библиотека кодирования : libebml v1.3.0 + libmatroska v1.4.0

 Видео
 Идентификатор : 1
 Формат : AVC
 Формат/Информация : Advanced Video Codec
 Профиль формата : High@L4.1
 Параметр CABAC формата : Да
 Параметр ReFrames формата : 8 кадров
 Идентификатор кодека : V_MPEG4/ISO/AVC
 Продолжительность : 1 ч. 31 м.
 Битрейт : 2529 Кбит/сек
 Ширина : 1280 пикселей
 Высота : 720 пикселей
 Соотношение сторон : 16:9
 Режим частоты кадров : Постоянный
 Частота кадров : 24,000 кадра/сек
 Цветовое пространство : YUV
 Субдискретизация насыщенности : 4:2:0
 Битовая глубина : 8 бит
 Тип развёртки : Прогрессивная
 Бит/(Пиксели*Кадры) : 0.114
 Размер потока : 1,57 Гбайт (72%)
 Библиотека кодирования : x264 core 125 r2208 d9d2288
 Настройки программы : cabac=1 / ref=8 / deblock=1:-2:-2 / analyse=0x3:0x133 / me=umh / subme=11 / psy=1 / psy_rd=1.08:0.02 / mixed_ref=1 / me_range=32 / chroma_me=1 / trellis=2 / 8x8dct=1 / cqm=0 / deadzone=21,11 / fast_pskip=0 / chroma_qp_offset=-3 / threads=9 / lookahead_threads=1 / sliced_threads=0 / nr=0 / decimate=1 / interlaced=0 / bluray_compat=0 / constrained_intra=0 / bframes=9 / b_pyramid=2 / b_adapt=2 / b_bias=0 / direct=3 / weightb=1 / open_gop=0 / weightp=2 / keyint=240 / keyint_min=23 / scenecut=40 / intra_refresh=0 / rc_lookahead=150 / rc=2pass / mbtree=1 / bitrate=2529 / ratetol=1.0 / qcomp=0.70 / qpmin=0 / qpmax=69 / qpstep=4 / cplxblur=20.0 / qblur=0.5 / vbv_maxrate=50000 / vbv_bufsize=65000 / nal_hrd=none / ip_ratio=1.35 / aq=1:0.70
 Язык : English
 Default : Да
 Forced : Нет

 Аудио #1
 Идентификатор : 2
 Формат : AC-3
 Формат/Информация : Audio Coding 3
 Расширение режима : CM (complete main)
 Параметр Endianness формата : Big
 Идентификатор кодека : A_AC3
 Продолжительность : 1 ч. 31 м.
 Вид битрейта : Постоянный
 Битрейт : 448 Кбит/сек
 Каналы : 6 каналов
 Расположение каналов : Front: L C R, Side: L R, LFE
 Частота : 48,0 КГц
 Битовая глубина : 16 бит
 Метод сжатия : С потерями
 Размер потока : 293 Мбайт (13%)
 Заголовок : MVO | DD 5.1 @ 448 kbps - R5
 Язык : Russian
 Default : Да
 Forced : Да

 Аудио #2
 Идентификатор : 3
 Формат : AC-3
 Формат/Информация : Audio Coding 3
 Расширение режима : CM (complete main)
 Параметр Endianness формата : Big
 Идентификатор кодека : A_AC3
 Продолжительность : 1 ч. 31 м.
 Вид битрейта : Постоянный
 Битрейт : 448 Кбит/сек
 Каналы : 6 каналов
 Расположение каналов : Front: L C R, Side: L R, LFE
 Частота : 48,0 КГц
 Битовая глубина : 16 бит
 Метод сжатия : С потерями
 Размер потока : 293 Мбайт (13%)
 Заголовок : Original | DD 5.1 @ 448 kbps
 Язык : English
 Default : Нет
 Forced : Нет

 Текст #1
 Идентификатор : 4
 Формат : UTF-8
 Идентификатор кодека : S_TEXT/UTF8
 Идентификатор кодека/Информация : UTF-8 Plain Text
 Язык : Russian
 Default : Нет
 Forced : Нет

 Текст #2
 Идентификатор : 5
 Формат : UTF-8
 Идентификатор кодека : S_TEXT/UTF8
 Идентификатор кодека/Информация : UTF-8 Plain Text
 Язык : English
 Default : Нет
 Forced : Нет

picpicpic
Для увеличения картинки щелкните мышкой по превью

Этот торрент доступен для скачивания без регистрации. Перед тем, как его скачать, прочтите, пожалуйста Пользовательское соглашение, а также как можно дольше оставайтесь на раздаче! Также вы можете выкладывать этот торрент или ссылку на него на других интернет-ресурсах, в том числе на торрент трекерах. Для получение более подробной информации о релизе, а также для того, чтобы поблагодарить релизера, вам необходимо зарегистрироваться.

[underverse.su].t27359.torrent
Трекер: Зарегистрирован   [ 09.05.2013 20:16 ]   [ торрент доступен для скачивания без регистрации ]

Статус: проверено (by Чертёнок at 09.05.2013 20:29)
Поблагодарили: пока никто не поблагодарил...
Тип торрента: публичный - доступные источники с открытых трекеров: 
Размер: 2,18 GB (занимает 1/2 DVDR, для записи нужно 1 болванка DVDR/RW)
 
 
Похожие темы
Форум Тема Автор Торрент Отв. Посл. сооб.
Зарубежное кино [DVDRip, Low-Res HDRip, и т.д.] Гость / The Caller (Мэттью Паркхилл / Matthew Parkhill) [2011 г., ужасы, триллер, детектив, DVDRip] Korsar111
0 | 0

1 | 944

11

05.10.2011 07:52

Зарубежное кино [DVDRip, Low-Res HDRip, и т.д.] Гость / The Caller (Мэттью Паркхилл) [2011 г., триллер, детектив, HDRip] MVO TERRAN
1 | 0

0 | 910

13

04.04.2013 09:40

Зарубежное кино [DVDRip, Low-Res HDRip, и т.д.] Гость / The Guest (Адам Вингард / Adam Wingard) [2014 г., боевик, триллер, детектив, HDRip] DVO (datynet и Галина Васюкова) + Original (Eng) 90ytr90
2 | 0

0 | 923

68

06.12.2014 09:55

Зарубежное кино [DVDRip, Low-Res HDRip, и т.д.] Гость / The Guest (Адам Вингард) [2014 г., боевик, триллер, детектив, HDRip] AVO [Doctor Joker] Паукан
2 | 0

0 | 574

6

22.12.2014 08:30

Зарубежное кино [DVDRip, Low-Res HDRip, и т.д.] Гость / The Guest (Адам Вингард) [2014 г., боевик, триллер, детектив, НDRip] DVO [datynet и Галина Васюкова] Паукан
27 | 0

0 | 660

9

22.12.2014 12:49

Зарубежное кино [DVDRip, Low-Res HDRip, и т.д.] Гость / The Guest (Адам Вингард / Adam Wingard) [2014 г., боевик, триллер, детектив, HDRip] AVO [А.Матвеев] Паукан
0 | 0

0 | 972

50

26.12.2014 10:08

T Зарубежное кино [DVDRip, Low-Res HDRip, и т.д.] Гость / The Guest (Адам Вингард / Adam Wingard) [2014 г., боевик, триллер, детектив, HDRip] Dub (iTunes) 90ytr90
4 | 0

0 | 640

21

25.02.2015 20:43

T Зарубежное кино [DVDRip, Low-Res HDRip, и т.д.] Гость / The Guest (Адам Вингард / Adam Wingard) [2014 г., боевик, триллер, детектив, HDRip-AVC] Dub (iTunes) 90ytr90
1 | 0

0 | 588

13

26.02.2015 05:23

T Зарубежное кино [DVDRip, Low-Res HDRip, и т.д.] Гость / The Guest (Адам Вингард / Adam Wingard) [2014 г., боевик, триллер, детектив, BDRip-AVC] Dub (iTunes) + AVO (Матвеев) + Original (Eng) + Sub (Rus, Eng) 90ytr90
26 | 1

0 | 528

12

26.02.2015 17:40

T Зарубежное кино [DVDRip, Low-Res HDRip, и т.д.] Гость / The Guest (Адам Вингард / Adam Wingard) [2014 г., боевик, триллер, детектив, HDRip] Dub (iTunes) 90ytr90
0 | 0

0 | 662

11

26.02.2015 17:43


Яндекс.Метрика powered by Sphinx


В Н И М А Н И Е
Сайт не распространяет и не хранит электронные версии произведений, а лишь бесплатно и без коммерческой выгоды (не требуя взамен платы,
SMS и т.д.) предоставляет доступ к создаваемому пользователями каталогу ссылок на торрент-файлы, которые содержат только списки хеш-сумм.
Убедительная просьба с жалобами обращаться напрямую к пользователю, разместившему торрент файл.

Вверх