Loading...
Error

Пришельцы. История военной тайны. [2011 г., документальный, TVRip]

Статистика раздачи
Размер:  550 MB   |    Зарегистрирован:  3 года 6 месяцев   |    Скачан:  30 раз
Сидов:  1  |  0 KB/s  ]   Личеров:  0  |  0 KB/s  ]

* - сиды/пиры с внешних источников

   
 
Автор Сообщение

матроскин Пол:Муж

09-Май-2013 09:02

Пришельцы. История военной тайны.


Год выпуска: 2011
Жанр: документальный
Страна: Россия
Режиссер: Александр Мержанов
Текст читает: Владимир Ерёмин
Сюжет фильма:
Фильм о реальных исследованиях НЛО. Впервые представлены не только ещё недавно сверхсекретные документы и видеоматериалы – специально для фильма будет показан ряд экспериментов по технологиям НЛО, которые проводились в закрытых лабораториях. Двадцать лет Министерство обороны скрывало сам факт существования этой видеопленки. Мы видим просторный кабинет. За столами – люди в советской военной форме. Перед ними – запечатанные конверты. Человек в штатском вводит офицеров в состояние гипноза. Только теперь из конвертов достают карты какой-то местности. Дальнейшее выглядит даже забавно – находящиеся в трансе военные плавно водят руками над этими картами. Их задача – УВИДЕТЬ, какие войска и техника противника находятся на данной местности. Результаты эксперимента ошеломляют!
Качество видео: TVRip

Продолжительность: 00:44:42
Формат: avi
Видео: XviD, 720x416, 1521 kbps
Аудио: русский, оригинал, MP3 2.0, 192 kbps

Код:

General
Complete name                    : C:\Users\Security\Desktop\Пришельцы История военной тайны.avi
Format                           : AVI
Format/Info                      : Audio Video Interleave
File size                        : 550 MiB
Duration                         : 44mn 42s
Overall bit rate                 : 1 720 Kbps
Writing application              : VirtualDubMod 1.5.4.1 (build 2178/release)
Writing library                  : VirtualDubMod build 2178/release

Video
ID                               : 0
Format                           : MPEG-4 Visual
Format profile                   : Streaming Video@L1
Format settings, BVOP            : Yes
Format settings, QPel            : No
Format settings, GMC             : No warppoints
Format settings, Matrix          : Custom
Codec ID                         : XVID
Codec ID/Hint                    : XviD
Duration                         : 44mn 42s
Bit rate                         : 1 521 Kbps
Width                            : 720 pixels
Height                           : 416 pixels
Display aspect ratio             : 16/9
Frame rate                       : 25.000 fps
Resolution                       : 24 bits
Colorimetry                      : 4:2:0
Scan type                        : Progressive
Bits/(Pixel*Frame)               : 0.203
Stream size                      : 486 MiB (88%)
Writing library                  : XviD 1.2.1 (UTC 2008-12-04)

Audio
ID                               : 1
Format                           : MPEG Audio
Format version                   : Version 1
Format profile                   : Layer 3
Codec ID                         : 55
Codec ID/Hint                    : MP3
Duration                         : 44mn 42s
Bit rate mode                    : Constant
Bit rate                         : 192 Kbps
Channel(s)                       : 2 channels
Sampling rate                    : 48.0 KHz
Resolution                       : 16 bits
Stream size                      : 61.4 MiB (11%)
Alignment                        : Aligned on interleaves
Interleave, duration             : 80 ms (2.00 video frames)
Interleave, preload duration     : 504 ms
Writing library                  : LAME3.98r
Encoding settings                : -m j -V 4 -q 2 -lowpass 18.6 -b 192

picpicpicpicpicpic
Для увеличения картинки щелкните мышкой по превью

Этот торрент недоступен для скачивания без регистрации, однако доступен по публичной magnet-ссылке (источники с публичных трекеров). Перед использованием ссылки прочтите, пожалуйста Пользовательское соглашение, а также как можно дольше оставайтесь на раздаче! Для того, чтобы скачать сам торрент-файл (который видит больше источников), а также для того, чтобы поблагодарить релизера, вам необходимо зарегистрироваться. Если регистрироваться лень - вы можете также попробовать скачать релиз по нашим партнерским ссылкам ниже.

[underverse.su].t27336.torrent
Трекер: Зарегистрирован   [ 09.05.2013 09:02 ]  

Статус: проверено (by Чертёнок at 09.05.2013 10:26)
Поблагодарили: 4 человека
Тип торрента: публичный - доступные источники с открытых трекеров: 
Размер: 550 MB (занимает 0,12 DVDR, для записи нужно 1 болванка DVDR/RW)
 
 

матроскин Пол:Муж

09-Май-2013 09:04



Последний раз редактировалось: матроскин (14.06.2013 10:27), всего редактировалось 1 раз

матроскин Пол:Муж

22-Май-2013 20:29

NASA на Марсе нашли Советскую станцию



29 мая 1971 года автоматическая станция «Марс-3», стартовавшая к Марсу 2 декабря 1970 года, вошла в атмосферу планеты, совершив первую и единственную в истории мягкую посадку.
Зонд после посадки начал передавать информацию, но после 14,5 секунды связь исчезла. Специалисты решили, что электронная начинка модуля была уничтожена статическим электричеством, которое накопилось в сухих марсианских условиях.

Виталий Егоров в декабре 2012 года, в соцсети «Вконтакте», увидел на снимках некий объект, очень похожий на советскую станцию. Он был расположен, там, где указывали советские конструкторы. Егоров связался с профессором Александром Базилевским, при поддержке которого НАСА 10 марта 2013 года сделало повторную съемку с MRO.

На снимках хорошо видны: штанга с двигателем мягкой посадки, конус тормозной и сам посадочный модуль с парашютом, размером в 1,5 метра. Через интернет снимки поверхности Марса доступны каждому.

Это доказывает, что и мы оставили свой след на Марсе, а то сейчас только и пишут о НАСА, а свою историю забывают. – сказал Егоров.

Яндекс.Метрика powered by Sphinx


В Н И М А Н И Е
Сайт не распространяет и не хранит электронные версии произведений, а лишь бесплатно и без коммерческой выгоды (не требуя взамен платы,
SMS и т.д.) предоставляет доступ к создаваемому пользователями каталогу ссылок на торрент-файлы, которые содержат только списки хеш-сумм.
Убедительная просьба с жалобами обращаться напрямую к пользователю, разместившему торрент файл.

Вверх