Loading...
Error

Вдали от Родины (Алексей Швачко) [1960 г., военный, драма, TVRip]

Статистика раздачи
Размер:  744 MB   |    Зарегистрирован:  3 года 6 месяцев   |    Скачан:  5 раз

Полного источника не было: 5 дней

Сидов:  0  |  0 KB/s  ]   Личеров:  0  |  0 KB/s  ]

* - сиды/пиры с внешних источников

   
 
Автор Сообщение

матроскин Пол:Муж

09-Май-2013 08:24

Вдали от Родины


Год выпуска: 1960
Жанр: военный, драма
Страна: СССР
Режиссер: Алексей Швачко
В ролях: Вадим Медведев, Зинаида Кириенко, Ольга Викланд, Владимир Емельянов, Всеволод Аксенов, Михаил Козаков, Борис Дмоховский, Евгений Балиев, Эмма Сидорова
Сюжет фильма:
В основу кинофильма «Вдали от Родины» легло произведение писателя Ю.Дольд-Михайлика под названием «И один в поле воин». Главный герой картины – лейтенант Гончаренко, который состоит на службе в советской разведке. Ему предстоит выполнить очередное задание – взяв имя барона Генриха фон Голдринга, проникнуть в тыл фашистов и узнать важнейшую информацию: местонахождение тайного завода, расположенного под землей. Именно там производятся новые разновидности оружия.


Качество видео: TVRip

Продолжительность: 01:22:59
Формат: avi
Видео: XviD, 704x528, 1118 kbps
Аудио: русский, оригинал, MP3 2.0, 128 kbps

Код:

General
Complete name                    : C:\Users\Security\Videos\Мамонов\Вдали от Родины.avi
Format                           : AVI
Format/Info                      : Audio Video Interleave
File size                        : 744 MiB
Duration                         : 1h 22mn
Overall bit rate                 : 1 254 Kbps
Writing application              : VirtualDubMod 1.5.4.1 (build 2178/release)
Writing library                  : VirtualDubMod build 2178/release

Video
ID                               : 0
Format                           : MPEG-4 Visual
Format profile                   : Streaming Video@L1
Format settings, BVOP            : Yes
Format settings, QPel            : No
Format settings, GMC             : No warppoints
Format settings, Matrix          : Custom
Codec ID                         : XVID
Codec ID/Hint                    : XviD
Duration                         : 1h 22mn
Bit rate                         : 1 118 Kbps
Width                            : 704 pixels
Height                           : 528 pixels
Display aspect ratio             : 4/3
Frame rate                       : 25.000 fps
Resolution                       : 24 bits
Colorimetry                      : 4:2:0
Scan type                        : Progressive
Bits/(Pixel*Frame)               : 0.120
Stream size                      : 664 MiB (89%)
Writing library                  : XviD 64

Audio
ID                               : 1
Format                           : MPEG Audio
Format version                   : Version 1
Format profile                   : Layer 3
Codec ID                         : 55
Codec ID/Hint                    : MP3
Duration                         : 1h 22mn
Bit rate mode                    : Constant
Bit rate                         : 128 Kbps
Channel(s)                       : 2 channels
Sampling rate                    : 48.0 KHz
Resolution                       : 16 bits
Stream size                      : 76.0 MiB (10%)
Alignment                        : Aligned on interleaves
Interleave, duration             : 80 ms (2.00 video frames)
Interleave, preload duration     : 504 ms
Writing library                  : LAME3.98r
Encoding settings                : -m j -V 4 -q 2 -lowpass 17 -b 128
Language                         : Russian

picpicpicpicpicpic
Для увеличения картинки щелкните мышкой по превью

Этот торрент недоступен для скачивания без регистрации, однако доступен по публичной magnet-ссылке (источники с публичных трекеров). Перед использованием ссылки прочтите, пожалуйста Пользовательское соглашение, а также как можно дольше оставайтесь на раздаче! Для того, чтобы скачать сам торрент-файл (который видит больше источников), а также для того, чтобы поблагодарить релизера, вам необходимо зарегистрироваться. Если регистрироваться лень - вы можете также попробовать скачать релиз по нашим партнерским ссылкам ниже.

[underverse.su].t27328.torrent
Трекер: Зарегистрирован   [ 09.05.2013 08:24 ]  

Статус: проверено (by Чертёнок at 09.05.2013 10:17)
Поблагодарили: пока никто не поблагодарил...
Тип торрента: публичный - доступные источники с открытых трекеров: 
Размер: 744 MB (занимает 0,17 DVDR, для записи нужно 1 болванка DVDR/RW)
 
 
Похожие темы
Форум Тема Автор Торрент Отв. Посл. сооб.
Зарубежное кино [DVDRip, Low-Res HDRip, и т.д.] Вдали от рая / Вдали от небес / Far from Heaven (Тодд Хейнс) [2002 г., Драма, мелодрама, BDRip-AVC] MVO + Original Чертёнок
1 | 0

0 | 502

5

12.07.2013 11:48

матроскин Пол:Муж

09-Май-2013 08:41




ссылка

Яндекс.Метрика powered by Sphinx


В Н И М А Н И Е
Сайт не распространяет и не хранит электронные версии произведений, а лишь бесплатно и без коммерческой выгоды (не требуя взамен платы,
SMS и т.д.) предоставляет доступ к создаваемому пользователями каталогу ссылок на торрент-файлы, которые содержат только списки хеш-сумм.
Убедительная просьба с жалобами обращаться напрямую к пользователю, разместившему торрент файл.

Вверх