Loading...
Error

Доктор Вера (Дамир Вятич-Бережных ) [1967 г., военный, драма, TVRip]

Статистика раздачи
Размер:  1,37 GB   |    Зарегистрирован:  3 года 6 месяцев   |    Скачан:  0 раз

Полного источника не было: 8 месяцев

Сидов:  0  |  0 KB/s  ]   Личеров:  0  |  0 KB/s  ]

* - сиды/пиры с внешних источников

   
 
Автор Сообщение

матроскин Пол:Муж

09-Май-2013 07:53

Доктор Вера


Год выпуска: 1967
Жанр: военный, драма
Страна: СССР
Режиссер: Дамир Вятич-Бережных
В ролях: Ирина Тарковская, Нинель Мышкова, Георгий Жжёнов, Николай Крючков, Виктор Коршунов, Кларина Фролова-Воронцова, Александр Ширшов, Артем Иноземцев, Анатолий Ларионов, Юрий Киреев, Александр Кириллов, Томас Вайсета, Костя Целыковский, Алла Ляпина,...
Сюжет фильма:
По повести Бориса Полевого. Октябрь 1941. Молодой хирург Вера Трешникова вынуждена во имя спасения многих жизней стать начальником немецкого госпиталя для гражданских лиц, где она пpодолжала подпольную борьбу против немцев. А тепеpь, после освобождения города, она подозревается в пособничестве фашистам...



Качество видео: TVRip

Продолжительность: 01:24:03
Формат: avi
Видео: XviD, 704x544, 2126 kbps
Аудио: русский, оригинал, MP3 2.0, 192 kbps

Код:

General
Complete name                    : C:\Users\Security\Desktop\Доктор Вера.1967.TVRip.avi
Format                           : AVI
Format/Info                      : Audio Video Interleave
File size                        : 1.37 GiB
Duration                         : 1h 24mn
Overall bit rate                 : 2 329 Kbps
Movie name                       : Доктор Вера.1967.TVRip.Xvid.MP3.1.4GB.R.G.Kino-USSR.[*другой трекер*]
Director                         : Landmesser
Writing application              : VirtualDubMod 1.5.10.3 | www.virtualdub-fr.org || (build 2550/release)
Copyright                        : R.G.Kino-USSR
Comment                          : *другой трекер*

Video
ID                               : 0
Format                           : MPEG-4 Visual
Format profile                   : Streaming Video@L1
Format settings, BVOP            : Yes
Format settings, QPel            : No
Format settings, GMC             : No warppoints
Format settings, Matrix          : Default (H.263)
Codec ID                         : XVID
Codec ID/Hint                    : XviD
Duration                         : 1h 24mn
Bit rate                         : 2 127 Kbps
Width                            : 704 pixels
Height                           : 544 pixels
Display aspect ratio             : 1.294
Frame rate                       : 25.000 fps
Resolution                       : 24 bits
Colorimetry                      : 4:2:0
Scan type                        : Progressive
Bits/(Pixel*Frame)               : 0.222
Stream size                      : 1.25 GiB (91%)
Writing library                  : XviD 65

Audio
ID                               : 1
Format                           : MPEG Audio
Format version                   : Version 1
Format profile                   : Layer 3
Codec ID                         : 55
Codec ID/Hint                    : MP3
Duration                         : 1h 24mn
Bit rate mode                    : Constant
Bit rate                         : 192 Kbps
Channel(s)                       : 2 channels
Sampling rate                    : 48.0 KHz
Resolution                       : 16 bits
Stream size                      : 115 MiB (8%)
Alignment                        : Aligned on interleaves
Interleave, duration             : 40 ms (1.00 video frame)
Interleave, preload duration     : 504 ms
Writing library                  : LAME3.98r
Encoding settings                : -m s -V 4 -q 0 -lowpass 18.6 -b 192

picpicpicpicpicpic
Для увеличения картинки щелкните мышкой по превью

Этот торрент недоступен для скачивания без регистрации, однако доступен по публичной magnet-ссылке (источники с публичных трекеров). Перед использованием ссылки прочтите, пожалуйста Пользовательское соглашение, а также как можно дольше оставайтесь на раздаче! Для того, чтобы скачать сам торрент-файл (который видит больше источников), а также для того, чтобы поблагодарить релизера, вам необходимо зарегистрироваться. Если регистрироваться лень - вы можете также попробовать скачать релиз по нашим партнерским ссылкам ниже.

[underverse.su].t27322.torrent
Трекер: Зарегистрирован   [ 09.05.2013 07:53 ]  

Статус: проверено (by Чертёнок at 09.05.2013 10:15)
Поблагодарили: пока никто не поблагодарил...
Тип торрента: публичный - доступные источники с открытых трекеров: 
Размер: 1,37 GB (занимает 0,31 DVDR, для записи нужно 1 болванка DVDR/RW)
 
 

матроскин Пол:Муж

09-Май-2013 07:59

ВСЕХ ПОЗДРАВЛЯЮ С ВЕЛИКИМ ПРАЗДНИКОМ С ДНЕМ ПОБЕДЫ!!!

матроскин Пол:Муж

09-Май-2013 13:02


ссылка

Яндекс.Метрика powered by Sphinx


В Н И М А Н И Е
Сайт не распространяет и не хранит электронные версии произведений, а лишь бесплатно и без коммерческой выгоды (не требуя взамен платы,
SMS и т.д.) предоставляет доступ к создаваемому пользователями каталогу ссылок на торрент-файлы, которые содержат только списки хеш-сумм.
Убедительная просьба с жалобами обращаться напрямую к пользователю, разместившему торрент файл.

Вверх