Loading...
Error

Тихая гавань / Safe Haven (Лассе Халльстрём / Lasse Hallström) [2013 г., триллер, драма, мелодрама, BDRip] Dub

Статистика раздачи
Размер:  747 MB   |    Зарегистрирован:  3 года 6 месяцев   |    Скачан:  4 раза

Полного источника не было: 1 месяц 21 день

Сидов:  0  |  0 KB/s  ]   Личеров:  0  |  0 KB/s  ]

* - сиды/пиры с внешних источников

   
 
Автор Сообщение

Gaarochi Пол:Муж

08-Май-2013 07:48

Тихая гавань / Safe Haven
«Важно не то, от чего ты бежишь, а то, к чему ты приходишь»


Год выпуска: 2013
Жанр: триллер, драма, мелодрама
Страна: США
Режиссер: Лассе Халльстрём / Lasse Hallström
В ролях: Джулианна Хаф, Джош Дюамель, Дэвид Лайонс, Коби Смолдерс, Мими Кирклэнд, Ноа Ломакс, Ред Уэст, Робин Маллинз, Ирен Циглер, Рик Рейц


Сюжет фильма:
Кэти много лет страдала от жестокости мужа. Потеряв надежду на спасение, она совершила отчаянный побег и обрела «тихую гавань» в маленьком спокойном южном городке. Но готова ли Кэти к новым отношениям? Способна ли вновь поверить мужчине, понять его и полюбить? Даже если речь идет о таком обаятельном человеке, как молодой вдовец Алекс Уитли. Алекс и Кэти идут по тонкому льду неизвестности, — а между тем муж Кэти уже начал ее поиски.


  • Мировая премьера: 13 февраля 2013
  • Российская премьера: 14 февраля 2013, «Парадиз»






Качество видео: BDRip [Исходник: BDRemux 1080p]
Продолжительность: 01:55:39
Формат: AVI
Видео: XviD, 688x288, ~765 kbps avg
Аудио: дублированный, MP3 2.0, ~128.00 kbps avg

Код:

Формат : AVI
 Формат/Информация : Audio Video Interleave
 Размер файла : 747 Мбайт
 Продолжительность : 1 ч. 55 м.
 Общий поток : 903 Кбит/сек
 Программа кодирования : VirtualDubMod 1.5.10.3 | www.virtualdub-fr.org || (build 2550/release)
 Библиотека кодирования : VirtualDubMod build 2550/release

Видео
 Идентификатор : 0
 Формат : MPEG-4 Visual
 Профиль формата : Advanced Simple@L5
 Параметр BVOP формата : 1
 Параметр QPel формата : Нет
 Параметр GMC формата : Без точки перехода
 Параметр матрицы формата : Выборочная
 Идентификатор кодека : XVID
 Идентификатор кодека/Подсказка : XviD
 Продолжительность : 1 ч. 55 м.
 Битрейт : 766 Кбит/сек
 Ширина : 688 пикселей
 Высота : 288 пикселей
 Соотношение сторон : 2,40:1
 Частота кадров : 23,976 кадра/сек
 Цветовое пространство : YUV
 Субдискретизация насыщенности : 4:2:0
 Битовая глубина : 8 бит
 Тип развёртки : Прогрессивная
 Метод сжатия : С потерями
 Бит/(Пиксели*Кадры) : 0.161
 Размер потока : 633 Мбайт (85%)
 Библиотека кодирования : XviD 73

Аудио
 Идентификатор : 1
 Формат : MPEG Audio
 Версия формата : Version 1
 Профиль формата : Layer 3
 Идентификатор кодека : 55
 Идентификатор кодека/Подсказка : MP3
 Продолжительность : 1 ч. 55 м.
 Вид битрейта : Постоянный
 Битрейт : 128 Кбит/сек
 Каналы : 2 канала
 Частота : 48,0 КГц
 Метод сжатия : С потерями
 Размер потока : 106 Мбайт (14%)
 Выравнивание : Соединение по промежуткам
 Продолжительность промежутка : 42 мс. (1,00 видеокадр)
 Время предзагрузки промежутка : 504 мс.
 Библиотека кодирования : LAME3.98.4

picpicpic
Для увеличения картинки щелкните мышкой по превью

Этот торрент недоступен для скачивания без регистрации, однако доступен по публичной magnet-ссылке (источники с публичных трекеров). Перед использованием ссылки прочтите, пожалуйста Пользовательское соглашение, а также как можно дольше оставайтесь на раздаче! Для того, чтобы скачать сам торрент-файл (который видит больше источников), а также для того, чтобы поблагодарить релизера, вам необходимо зарегистрироваться. Если регистрироваться лень - вы можете также попробовать скачать релиз по нашим партнерским ссылкам ниже.

[underverse.su].t27289.torrent
Трекер: Зарегистрирован   [ 08.05.2013 07:48 ]  

Статус: проверено (by Чертёнок at 08.05.2013 09:08)
Поблагодарили: пока никто не поблагодарил...
Тип торрента: публичный - доступные источники с открытых трекеров: 
Размер: 747 MB (занимает 0,17 DVDR, для записи нужно 1 болванка DVDR/RW)
 
 
Похожие темы
Форум Тема Автор Торрент Отв. Посл. сооб.
Зарубежное кино [DVDRip, Low-Res HDRip, и т.д.] Тихая гавань / Safe Haven (Лассе Халльстрём) [2013 г., триллер, драма, мелодрама, детектив, DVDRip] Dub 90ytr90
0 | 8

1 | 974

17

05.05.2013 20:04

Зарубежное кино [DVDRip, Low-Res HDRip, и т.д.] Тихая гавань / Safe Haven (Лассе Халльстрём) [2013 г., триллер, драма, мелодрама, детектив, DVDRip-AVC] Dub 90ytr90
3 | 0

0 | 462

4

15.04.2013 16:55

Зарубежное кино [DVDRip, Low-Res HDRip, и т.д.] Тихая гавань / Safe Haven (Лассе Халльстрём) [2013 г., триллер, драма, мелодрама, детектив, BDRip] Dub 90ytr90
0 | 0

0 | 1230

47

15.04.2013 17:03

Зарубежное кино [DVDRip, Low-Res HDRip, и т.д.] Тихая гавань / Safe Haven (Лассе Халльстрём) [2013 г., триллер, драма, мелодрама, детектив, HDRip] Dub TERRAN
1 | 0

0 | 514

8

15.04.2013 17:04

Зарубежное кино [DVDRip, Low-Res HDRip, и т.д.] Тихая гавань / Safe Haven (Лассе Халльстрём / Lasse Hallstrom) [2013 г., триллер, драма, мелодрама, детектив, BDRip-AVC] Dub 90ytr90
0 | 0

0 | 1088

17

22.04.2013 14:30

Зарубежное кино [DVDRip, Low-Res HDRip, и т.д.] Тихая гавань / Safe Haven (Лассе Халльстрём / Lasse Hallstrom) [2013 г., США, драма, мелодрама, детектив, BDRip-AVC] Dub Garnett
54 | 2

0 | 555

16

26.04.2013 16:44

Зарубежное кино [DVDRip, Low-Res HDRip, и т.д.] Тихая гавань / Safe Haven (Лассе Халльстрём) [2013 г., триллер, драма, мелодрама, детектив, BDRip] Dub + Eng 90ytr90
31 | 1

0 | 1016

7

06.05.2013 17:30

Зарубежное кино [HDDVDRip / BDRip / WEB-DL / HDTV 1080/720р] Тихая гавань / Safe Haven (Лассе Халльстрём / Lasse Hallstrom) [2013 г., триллер, драма, мелодрама, детектив, BDRip 720p] Dub 90ytr90
1 | 0

0 | 364

5

23.04.2013 18:14

Зарубежное кино [HDDVDRip / BDRip / WEB-DL / HDTV 1080/720р] Тихая гавань / Safe Haven (Лассе Халльстрём / Lasse Hallstrom) [2013 г., триллер, драма, мелодрама, детектив, BDRip 1080p] Dub 90ytr90
1 | 0

0 | 377

2

23.04.2013 18:37


Яндекс.Метрика powered by Sphinx


В Н И М А Н И Е
Сайт не распространяет и не хранит электронные версии произведений, а лишь бесплатно и без коммерческой выгоды (не требуя взамен платы,
SMS и т.д.) предоставляет доступ к создаваемому пользователями каталогу ссылок на торрент-файлы, которые содержат только списки хеш-сумм.
Убедительная просьба с жалобами обращаться напрямую к пользователю, разместившему торрент файл.

Вверх