Loading...
Error

Мертвые тени / Dead Shadows (Давид Холева / David Cholewa) [2012 г., ужасы, HDRip] VO (den904 )

Статистика раздачи
Размер:  748 MB   |    Зарегистрирован:  3 года 7 месяцев   |    Скачан:  9 раз

Полного источника не было: 3 года 1 месяц

Сидов:  0  |  0 KB/s  ]   Личеров:  0  |  0 KB/s  ]

* - сиды/пиры с внешних источников

   
 
Автор Сообщение

Gaarochi Пол:Муж

08-Май-2013 07:37

Мертвые тени / Dead Shadows


Год выпуска: 2012
Жанр: ужасы
Страна: Франция
Режиссер: Давид Холева / David Cholewa
В ролях: Жиль Бэррет, Марго Деви, Сильвен Дюбуа, Джон Фэллон, Норберт Феррер, Кристоф Перес,, Рурик Салле, Жоанна Серор


Сюжет фильма:
Одиннадцать лет назад - в тот день, когда с Земли можно было видеть пролетающую комету Хейли, были зверски убиты родители Криса. Сегодня годовщина этого ужасного события, а ночью на небе вновь появится комета, которую готовятся наблюдать его соседи. Однако, наступает ночь, и Крис замечает, что окружающие его люди ведут себя как-то странно - парень подозревает в этом связь с небесным явлением. Крис, с помощью нескольких соседей, пытается выбраться из дома, чтобы не стать жертвой остальных жильцов, превратившихся в каких-то потусторонних тварей...

  • Мировая премьера: 29 мая 2012
  • Рейтинг MPAA: R лицам до 17 лет обязательно присутствие взрослого




Качество видео: HDRip
Продолжительность: 01:14:43
Формат: AVI
Видео: XviD, 720x384, ~1198 kbps avg
Аудио: русский, одноголосый закадровый [любительский] [den904], AC3 2.0, ~192 kbps

Релиз от:

Код:

General
 Complete name : K:\Работа\Dead.Shadows.avi
 Format : AVI
 Format/Info : Audio Video Interleave
 File size : 748 MiB
 Duration : 1h 14mn
 Overall bit rate : 1 400 Kbps
 Writing application : VirtualDubMod 1.5.10.2 (build 2540/release)
 Writing library : VirtualDub build 32661/release

Video
 ID : 0
 Format : MPEG-4 Visual
 Format profile : Advanced Simple@L5
 Format settings, BVOP : 2
 Format settings, QPel : No
 Format settings, GMC : No warppoints
 Format settings, Matrix : Default (H.263)
 Muxing mode : Packed bitstream
 Codec ID : XVID
 Codec ID/Hint : XviD
 Duration : 1h 14mn
 Bit rate : 1 199 Kbps
 Width : 720 pixels
 Height : 384 pixels
 Display aspect ratio : 1.875
 Frame rate : 23.976 fps
 Color space : YUV
 Chroma subsampling : 4:2:0
 Bit depth : 8 bits
 Scan type : Progressive
 Compression mode : Lossy
 Bits/(Pixel*Frame) : 0.181
 Stream size : 641 MiB (86%)
 Writing library : XviD 64

Audio
 ID : 1
 Format : AC-3
 Format/Info : Audio Coding 3
 Mode extension : CM (complete main)
 Codec ID : 2000
 Duration : 1h 14mn
 Bit rate mode : Constant
 Bit rate : 192 Kbps
 Channel(s) : 2 channels
 Channel positions : Front: L R
 Sampling rate : 48.0 KHz
 Bit depth : 16 bits
 Compression mode : Lossy
 Stream size : 103 MiB (14%)
 Alignment : Aligned on interleaves
 Interleave, duration : 42 ms (1.00 video frame)
 Interleave, preload duration : 512 ms

picpicpic
Для увеличения картинки щелкните мышкой по превью

Этот торрент недоступен для скачивания без регистрации, однако доступен по публичной magnet-ссылке (источники с публичных трекеров). Перед использованием ссылки прочтите, пожалуйста Пользовательское соглашение, а также как можно дольше оставайтесь на раздаче! Для того, чтобы скачать сам торрент-файл (который видит больше источников), а также для того, чтобы поблагодарить релизера, вам необходимо зарегистрироваться. Если регистрироваться лень - вы можете также попробовать скачать релиз по нашим партнерским ссылкам ниже.

[underverse.su].t27288.torrent
Трекер: Зарегистрирован   [ 08.05.2013 07:37 ]  

Статус: проверено (by Чертёнок at 08.05.2013 09:08)
Поблагодарили: пока никто не поблагодарил...
Тип торрента: публичный - доступные источники с открытых трекеров: 
Размер: 748 MB (занимает 0,17 DVDR, для записи нужно 1 болванка DVDR/RW)
 
 
Похожие темы
Форум Тема Автор Торрент Отв. Посл. сооб.
Зарубежное кино [DVDRip, Low-Res HDRip, и т.д.] Мертвые тени / Dead Shadows (Дэвид Холева) [2012 г., ужасы, HDRip] VO (den904) 90ytr90
0 | 0

0 | 684

9

05.05.2013 11:02


Яндекс.Метрика powered by Sphinx


В Н И М А Н И Е
Сайт не распространяет и не хранит электронные версии произведений, а лишь бесплатно и без коммерческой выгоды (не требуя взамен платы,
SMS и т.д.) предоставляет доступ к создаваемому пользователями каталогу ссылок на торрент-файлы, которые содержат только списки хеш-сумм.
Убедительная просьба с жалобами обращаться напрямую к пользователю, разместившему торрент файл.

Вверх