Loading...
Error

Искатели могил 2 / Grave Encounters 2 (Джон Поликуин / John Poliquin) [2012 г., ужасы, HDRip] MVO

Статистика раздачи
Размер:  708 MB   |    Зарегистрирован:  3 года 6 месяцев   |    Скачан:  8 раз

Полного источника не было: 2 года 1 месяц

Сидов:  0  |  0 KB/s  ]   Личеров:  0  |  0 KB/s  ]

* - сиды/пиры с внешних источников

   
 
Автор Сообщение

Gaarochi Пол:Муж

08-Май-2013 07:24

Искатели могил 2 / Grave Encounters 2
«Вы думали, что фильм закончился - и всё?»


Год выпуска: 2012
Жанр: ужасы
Страна: США , Канада
Режиссер: Джон Поликуин / John Poliquin
В ролях: Шон С. Филлипс, Дженника Фултон, Джеффри Бауэр-Чепман, Чарли Керр, Франциско Пассуэло, Эндрю Ампфлетт, Дж. Джонс, Майк Холц, Кэлвин Валантус, Зэк Лоркевич


Сюжет фильма:
В руки к режиссёру-юнцу Алексу попадает фильм ужасов «Искатели могил». Кино не производит на него впечатления, но отношение Алекса меняется, когда ему анонимно присылают странный видеоролик, смахивающий на вырезанную сценку из «Искателей». Заинтересовавшись посланием, Алекс пытается найти создателей хитового ужастика.

Тщетность этих попыток наталкивает парня на мысль, что снятое в «Искателях» произошло на самом деле, и авторы фильма мертвы. Продолжая расследование и получая новые доказательства своей теории, Алекс решается на последний шаг: он предлагает своим друзьям забраться в ту самую заброшенную психушку, где снимались «Искатели могил».


  • Мировая премьера: 2 октября 2012
  • Российская премьера: 10 января 2013, «Top Film Distribution»
  • Рейтинг MPAA: R лицам до 17 лет обязательно присутствие взрослого






Качество видео: HDRip
Продолжительность: 01:38:45
Формат: AVI
Видео: XviD, 624x352, 1002 Kbps
Аудио: русский, многоголосый закадровый [профессиональный], MP3 2.0, 128 Kbps

Код:

General
 Complete name : D:\Iskateli.mogil.2.2012.HDRip.avi
 Format : AVI
 Format/Info : Audio Video Interleave
 File size : 708 MiB
 Duration : 1h 38mn
 Overall bit rate : 1 002 Kbps
 Writing application : VirtualDubMod 1.5.10.2 (build 2542/release)
 Writing library : VirtualDubMod build 2542/release

Video
 ID : 0
 Format : MPEG-4 Visual
 Format profile : Advanced Simple@L5
 Format settings, BVOP : 2
 Format settings, QPel : No
 Format settings, GMC : No warppoints
 Format settings, Matrix : Default (H.263)
 Muxing mode : Packed bitstream
 Codec ID : XVID
 Codec ID/Hint : XviD
 Duration : 1h 38mn
 Bit rate : 865 Kbps
 Width : 624 pixels
 Height : 352 pixels
 Display aspect ratio : 16:9
 Frame rate : 23.976 fps
 Color space : YUV
 Chroma subsampling : 4:2:0
 Bit depth : 8 bits
 Scan type : Progressive
 Compression mode : Lossy
 Bits/(Pixel*Frame) : 0.164
 Stream size : 611 MiB (86%)
 Writing library : XviD 64

Audio
 ID : 1
 Format : MPEG Audio
 Format version : Version 1
 Format profile : Layer 3
 Mode : Joint stereo
 Mode extension : MS Stereo
 Codec ID : 55
 Codec ID/Hint : MP3
 Duration : 1h 38mn
 Bit rate mode : Constant
 Bit rate : 128 Kbps
 Channel(s) : 2 channels
 Sampling rate : 48.0 KHz
 Compression mode : Lossy
 Stream size : 90.4 MiB (13%)
 Alignment : Aligned on interleaves
 Interleave, duration : 42 ms (1.00 video frame)
 Interleave, preload duration : 504 ms
 Writing library : LAME3.99.5ЄЂ¤ЫQЛцІHТ

picpicpicpicpic
Для увеличения картинки щелкните мышкой по превью

Этот торрент недоступен для скачивания без регистрации, однако доступен по публичной magnet-ссылке (источники с публичных трекеров). Перед использованием ссылки прочтите, пожалуйста Пользовательское соглашение, а также как можно дольше оставайтесь на раздаче! Для того, чтобы скачать сам торрент-файл (который видит больше источников), а также для того, чтобы поблагодарить релизера, вам необходимо зарегистрироваться. Если регистрироваться лень - вы можете также попробовать скачать релиз по нашим партнерским ссылкам ниже.

[underverse.su].t27286.torrent
Трекер: Зарегистрирован   [ 08.05.2013 07:24 ]  

Статус: проверено (by Чертёнок at 08.05.2013 09:05)
Поблагодарили: пока никто не поблагодарил...
Тип торрента: публичный - доступные источники с открытых трекеров: 
Размер: 708 MB (занимает 0,16 DVDR, для записи нужно 1 болванка DVDR/RW)
 
 
Похожие темы
Форум Тема Автор Торрент Отв. Посл. сооб.
Зарубежное кино [DVDRip, Low-Res HDRip, и т.д.] Искатели могил / Grave Encounters (Вишес Бразерс) [2010 г., ужасы, триллер, HDRip] [Лицензия] 90ytr90
0 | 1

1 | 817

24

27.03.2012 20:46

Зарубежное кино [DVDRip, Low-Res HDRip, и т.д.] Искатели могил 2 / Grave Encounters 2 (Джон Поликуин) [2012 г., Ужасы, DVDRip] VO + Original 90ytr90
8 | 0

0 | 7206

32

07.12.2012 16:43

Зарубежное кино [DVDRip, Low-Res HDRip, и т.д.] Искатели могил 2 / Grave Encounters 2 (Джон Поликуин) [2012 г., Ужасы, DVDRip] VO 90ytr90
5 | 0

0 | 6539

7

07.12.2012 22:57

Зарубежное кино [DVDRip, Low-Res HDRip, и т.д.] Искатели могил 2 / Grave Encounters 2 (Джон Поликуин) [2012 г., ужасы, HDRip] MVO RG NewCinema
0 | 0

1 | 3638

10

16.03.2013 06:03

Зарубежное кино [HDDVDRip / BDRip / WEB-DL / HDTV 1080/720р] Искатели могил / Grave Encounters (Вишес Бразерс) [2011, ужасы, BDRip 720p] [VO (Хихидок)] Greshnik
0 | 0

1 | 1196

14

27.07.2012 20:06


Яндекс.Метрика powered by Sphinx


В Н И М А Н И Е
Сайт не распространяет и не хранит электронные версии произведений, а лишь бесплатно и без коммерческой выгоды (не требуя взамен платы,
SMS и т.д.) предоставляет доступ к создаваемому пользователями каталогу ссылок на торрент-файлы, которые содержат только списки хеш-сумм.
Убедительная просьба с жалобами обращаться напрямую к пользователю, разместившему торрент файл.

Вверх