Loading...
Error

«Разведчицы» / Серии: 1-12 [12] ( Феликс Герчиков) [2013 г., военный, драма, SatRip]

Статистика раздачи
Размер:  6,5 GB   |    Зарегистрирован:  3 года 6 месяцев   |    Скачан:  41 раз

Полного источника не было: 3 месяца 5 дней

Сидов:  0  |  0 KB/s  ]   Личеров:  0  |  0 KB/s  ]

* - сиды/пиры с внешних источников

   
 
Автор Сообщение

nemos Пол:Муж

08-Май-2013 02:27

Разведчицы


Год выпуска: 2013
Жанр: военный, драма
Страна: Россия
Режиссер: Феликс Герчиков
В ролях: Светлана Иванова, Светлана Устинова, Владимир Вдовиченков, Ирина Апексимова, Евгений Пронин, Анатолий Руденко, Николай Добрынин, Елизавета Лотова, Лянка Грыу, Александра Мареева, Анна Халиулина, Олег Морозов, Маркус Кунце, Михаил Елисеев, Сергей Мардарь, Юрий Орлов (II), Игорь Копылов, Оксана Базилевич, Алиса Миронова, Кирилл Жандаров, Олеся Бойко, Екатерина Рудакова, Александр Ситников, Александр Петров (X), Наталья Зацепина, Евгений Павлов (IV), Павел Миронов, Олег Малышев, Кирилл Горбунов, Ирина Основина
Сюжет фильма:
О драматическом переплетении судеб двух девушек-разведчиц в годы Второй мировой. Арина Прозоровская – идеалистка, убежденная комсомолка, выросшая в интеллигентной семье. Зоя Величко – деревенская девушка, дочь репрессированного кулака, волей судеб оказавшаяся в уголовной среде и набравшаяся там некоторого цинизма. Незадолго до войны обе девушки оказываются в разведшколе, которой руководит опытный разведчик майор Воротынников. Обстоятельства, при которых девушки начинают учебу, весьма трагические. На Арине "висит" обвинение в измене Родине, и служба для нее единственный шанс оправдаться. Зою обвиняют в убийстве матери Арины, которое произошло незадолго до того, как девушки попали в разведшколу. И хотя Зоя не совершала убийства, и даже пыталась помешать ему, доказательств у нее нет. Поэтому для Зои работа на государство – также единственная возможность избежать наказания.


Качество видео: SatRip

Продолжительность: 00:46:10 серия
Формат: AVI
Видео: XviD, 720x400, 1467 kbps
Аудио: русский, MP3 2.0, 192 kbps

Код:

F:\С underverse-3 Фильмы\Razvedchitsy.2013.Getty.SATRip\Razvedchitsy.03.2013.Getty.SATRip.avi
   General
      Complete name : F:\С underverse-3 Фильмы\Razvedchitsy.2013.Getty.SATRip\Razvedchitsy.03.2013.Getty.SATRip.avi
      Format : AVI
      Format/Info : Audio Video Interleave
      File size : 551 MiB
      Duration : 46mn 10s
      Overall bit rate : 1 669 Kbps
   Video #0
      ID : 0
      Format : MPEG-4 Visual
      Format profile : Advanced Simple@L5
      Format settings, BVOP : 1
      Format settings, QPel : No
      Format settings, GMC : No warppoints
      Format settings, Matrix : Default (H.263)
      Muxing mode : Packed bitstream
      Codec ID : XVID
      Codec ID/Hint : XviD
      Duration : 46mn 10s
      Bit rate : 1 467 Kbps
      Width : 720 pixels
      Height : 400 pixels
      Display aspect ratio : 16:9
      Frame rate : 25.000 fps
      Color space : YUV
      Chroma subsampling : 4:2:0
      Bit depth : 8 bits
      Scan type : Progressive
      Compression mode : Lossy
      Bits/(Pixel*Frame) : 0.204
      Stream size : 485 MiB (88%)
      Writing library : XviD 64
   Audio #1
      ID : 1
      Format : MPEG Audio
      Format version : Version 1
      Format profile : Layer 3
      Mode : Joint stereo
      Mode extension : MS Stereo
      Codec ID : 55
      Codec ID/Hint : MP3
      Duration : 46mn 10s
      Bit rate mode : Constant
      Bit rate : 192 Kbps
      Channel(s) : 2 channels
      Sampling rate : 48.0 KHz
      Compression mode : Lossy
      Stream size : 63.4 MiB (12%)
      Alignment : Split accross interleaves
      Interleave, duration : 40 ms (1.00 video frame)
      Interleave, preload duration : 500 ms
Семпл: http://multi-up.com/863253

Релиз группы:

picpicpicpicpicpicpicpicpicpicpicpic
Для увеличения картинки щелкните мышкой по превью
Сериал который был выложен и зарегистрирован более двух месяцев назад буду раздавать с 23.00ч до 06.00ч утра ( вина в этом не моя, а пользователей которые не поддерживают раздачу)

Этот торрент недоступен для скачивания без регистрации, однако доступен по публичной magnet-ссылке (источники с публичных трекеров). Перед использованием ссылки прочтите, пожалуйста Пользовательское соглашение, а также как можно дольше оставайтесь на раздаче! Для того, чтобы скачать сам торрент-файл (который видит больше источников), а также для того, чтобы поблагодарить релизера, вам необходимо зарегистрироваться. Если регистрироваться лень - вы можете также попробовать скачать релиз по нашим партнерским ссылкам ниже.

[underverse.su].t27557.torrent
Трекер: Зарегистрирован   [ 16.05.2013 14:40 ]  

Статус: проверено (by Печаль'ka at 16.05.2013 15:05)
Поблагодарили: 8 человек
Тип торрента: публичный - доступные источники с открытых трекеров: 
Размер: 6,5 GB (занимает 1,48 DVDR, для записи нужно 2 болванки DVDR/RW)
 
 


Последний раз редактировалось: nemos (06.11.2014 11:24), всего редактировалось 4 раз(а)

nemos Пол:Муж

08-Май-2013 21:14

торрент обновлен(6)

Яндекс.Метрика powered by Sphinx


В Н И М А Н И Е
Сайт не распространяет и не хранит электронные версии произведений, а лишь бесплатно и без коммерческой выгоды (не требуя взамен платы,
SMS и т.д.) предоставляет доступ к создаваемому пользователями каталогу ссылок на торрент-файлы, которые содержат только списки хеш-сумм.
Убедительная просьба с жалобами обращаться напрямую к пользователю, разместившему торрент файл.

Вверх