Loading...
Error

«Провинциал» / Серии: 1-16 [16] ( Арменак Назикян) [2013 г., Криминал, боевик, SatRip]

Статистика раздачи
Размер:  8,23 GB   |    Зарегистрирован:  3 года 6 месяцев   |    Скачан:  15 раз

Полного источника не было: 9 месяцев

Сидов:  0  |  0 KB/s  ]   Личеров:  0  |  0 KB/s  ]

* - сиды/пиры с внешних источников

   
 
Автор Сообщение

nemos Пол:Муж

07-Май-2013 18:35

Провинциал


Год выпуска: 2013
Жанр: Криминал, боевик
Страна: Россия
Режиссер: Арменак Назикян
В ролях: Александр Барановский, Андрей Терентьев, Владимир Стеклов, Михаил Елисеев, Роман Агеев, Ян Цапник, Егор Бакулин, Владимир Галась, Александр Черкашин, Константин Клюквин, Вера Баханкова, Дмитрий Лебедев, Геннадий Меньшиков, Сергей Шкарбан, Евгений Булгаков
Сюжет фильма:
Главный герой Сергей Андреев в одночасье лишается всей своей семьи. Его отца — директора небольшого провинциального завода убивают. Мать не выдерживает и тоже умирает. Когда Сергей возвращается домой он остается один на один со своей бедой. С самого начала он был уверен, что к смерти отца причастен олигарх Груздев. Сергей принимает решение — уехать жить в Санкт-Петербург и отомстить Груздеву. В Питере, начиная практически свою жизнь заново, Сергею удается приблизиться к Груздеву и его банку. Сергей обладает аналитическим умом, он очень сметлив и быстр на решения, может придумывать «многоходовые» операции. Он затевает комбинацию по банкротству «банка противника» и встречается с Груздевым. И только тогда Сергей задает себе вопрос — а причастен ли бывший банкир к смерти его отца Петра Андреева? И что делать дальше?
Качество видео: SatRip

Продолжительность: 00:44:20 серия
Формат: AVI
Видео: XviD, 720х400, 1 536 kbps
Аудио: русский, MP3 2.0, 128 kbps

Код:

F:\С underverse-3 Фильмы\Провинциал\Провинциал_03.avi
   General
      Complete name : F:\С underverse-3 Фильмы\Провинциал\Провинциал_03.avi
      Format : AVI
      Format/Info : Audio Video Interleave
      File size : 531 MiB
      Duration : 44mn 20s
      Overall bit rate : 1 674 Kbps
      Writing library : VirtualDub build 32507/release
   Video #0
      ID : 0
      Format : MPEG-4 Visual
      Format profile : Advanced Simple@L5
      Format settings, BVOP : 2
      Format settings, QPel : No
      Format settings, GMC : No warppoints
      Format settings, Matrix : Default (MPEG)
      Codec ID : XVID
      Codec ID/Hint : XviD
      Duration : 44mn 20s
      Bit rate : 1 536 Kbps
      Width : 720 pixels
      Height : 400 pixels
      Display aspect ratio : 16:9
      Frame rate : 25.000 fps
      Color space : YUV
      Chroma subsampling : 4:2:0
      Bit depth : 8 bits
      Scan type : Progressive
      Compression mode : Lossy
      Bits/(Pixel*Frame) : 0.213
      Stream size : 487 MiB (92%)
      Writing library : XviD 1.2.1 (UTC 2008-12-04)
   Audio #1
      ID : 1
      Format : MPEG Audio
      Format version : Version 1
      Format profile : Layer 3
      Mode : Joint stereo
      Mode extension : MS Stereo
      Codec ID : 55
      Codec ID/Hint : MP3
      Duration : 44mn 20s
      Bit rate mode : Constant
      Bit rate : 128 Kbps
      Channel(s) : 2 channels
      Sampling rate : 48.0 KHz
      Compression mode : Lossy
      Stream size : 40.6 MiB (8%)
      Alignment : Split accross interleaves
      Interleave, duration : 40 ms (1.00 video frame)
      Interleave, preload duration : 500 ms
Семпл: http://multi-up.com/863156

Релиз группы:

picpicpicpicpicpicpicpicpicpicpicpicpicpic
Для увеличения картинки щелкните мышкой по превью
Сериал который был выложен и зарегистрирован более двух месяцев назад буду раздавать с 23.00ч до 06.00ч утра ( вина в этом не моя, а пользователей которые не поддерживают раздачу)

Этот торрент недоступен для скачивания без регистрации, однако доступен по публичной magnet-ссылке (источники с публичных трекеров). Перед использованием ссылки прочтите, пожалуйста Пользовательское соглашение, а также как можно дольше оставайтесь на раздаче! Для того, чтобы скачать сам торрент-файл (который видит больше источников), а также для того, чтобы поблагодарить релизера, вам необходимо зарегистрироваться. Если регистрироваться лень - вы можете также попробовать скачать релиз по нашим партнерским ссылкам ниже.

[underverse.su].t27310.torrent
Трекер: Зарегистрирован   [ 08.05.2013 16:26 ]  

Статус: проверено (by Печаль'ka at 08.05.2013 19:05)
Поблагодарили: 2 человека
Тип торрента: публичный - доступные источники с открытых трекеров: 
Размер: 8,23 GB (занимает 1,88 DVDR, для записи нужно 2 болванки DVDR/RW)
 
 

Яндекс.Метрика powered by Sphinx


В Н И М А Н И Е
Сайт не распространяет и не хранит электронные версии произведений, а лишь бесплатно и без коммерческой выгоды (не требуя взамен платы,
SMS и т.д.) предоставляет доступ к создаваемому пользователями каталогу ссылок на торрент-файлы, которые содержат только списки хеш-сумм.
Убедительная просьба с жалобами обращаться напрямую к пользователю, разместившему торрент файл.

Вверх