Loading...
Error

Тело / El cuerpo (Ориол Паоло / Oriol Paulo) [2012 г., триллер, HDRip] VO

Статистика раздачи
Размер:  1,46 GB   |    Зарегистрирован:  3 года 7 месяцев   |    Скачан:  41 раз

Полного источника не было: 6 дней

Сидов:  0  |  0 KB/s  ]   Личеров:  0  |  0 KB/s  ]

* - сиды/пиры с внешних источников

   
 
Автор Сообщение

Gaarochi Пол:Муж

07-Май-2013 08:24

Тело / El cuerpo
«Hitchcock-style psychological thriller.»


Год выпуска: 2012
Жанр: триллер
Страна: Испания / Antena 3 Films, Canal+ España, Rodar y Rodar Cine y Televisión
Режиссер: Ориол Паоло / Oriol Paulo
В ролях: Белен Руэда, Уго Силва, Аура Гарридо, Хосе Коронадо, Хуан Пабло Шук, Наусикая Боннин, Кристина Пласас, Ориол Вила, Патриция Баргальо, Хорди Планас, Aida Oset, Пако Морено



Сюжет фильма:
Грузовик сбивает человека, убегающего от кого-то или от чего-то в панике. Прибывшие на место полицейские выясняют, что погибший - ночной сторож из близлежащего морга. Так что так напугало несчастного? И куда делся из отсека N3 недавно привезенный в морг труп?..


  • Мировая премьера: 4 октября 2012






Качество видео: HDRip
Продолжительность: 01:54:01
Формат: AVI
Видео: XviD, 720x304, 1370 kbps
Аудио: русский, одноголосый закадровый [любительский] [Хихикающий доктор], AC3 5.1, 448 kbps

Код:

General
 Complete name : G:\El.Cuerpo.2012_HDRip.avi
 Format : AVI
 Format/Info : Audio Video Interleave
 File size : 1.46 GiB
 Duration : 1h 54mn
 Overall bit rate : 1 828 Kbps
 Writing application : VirtualDubMod 1.5.10.2 (build 2540/release)
 Writing library : VirtualDubMod build 2540/release

Video
 ID : 0
 Format : MPEG-4 Visual
 Format profile : Advanced Simple@L5
 Format settings, BVOP : 2
 Format settings, QPel : No
 Format settings, GMC : No warppoints
 Format settings, Matrix : Default (H.263)
 Codec ID : XVID
 Codec ID/Hint : XviD
 Duration : 1h 54mn
 Bit rate : 1 371 Kbps
 Width : 720 pixels
 Height : 304 pixels
 Display aspect ratio : 2.35:1
 Frame rate : 24.000 fps
 Color space : YUV
 Chroma subsampling : 4:2:0
 Bit depth : 8 bits
 Scan type : Progressive
 Compression mode : Lossy
 Bits/(Pixel*Frame) : 0.261
 Stream size : 1.09 GiB (75%)
 Writing library : XviD 1.2.1 (UTC 2008-12-04)

Audio
 ID : 1
 Format : AC-3
 Format/Info : Audio Coding 3
 Mode extension : CM (complete main)
 Codec ID : 2000
 Duration : 1h 54mn
 Bit rate mode : Constant
 Bit rate : 448 Kbps
 Channel(s) : 6 channels
 Channel positions : Front: L C R, Side: L R, LFE
 Sampling rate : 48.0 KHz
 Bit depth : 16 bits
 Compression mode : Lossy
 Stream size : 365 MiB (25%)
 Alignment : Split accross interleaves
 Interleave, duration : 42 ms (1.00 video frame)
 Interleave, preload duration : 500 ms

picpicpicpicpic
Для увеличения картинки щелкните мышкой по превью

Этот торрент недоступен для скачивания без регистрации, однако доступен по публичной magnet-ссылке (источники с публичных трекеров). Перед использованием ссылки прочтите, пожалуйста Пользовательское соглашение, а также как можно дольше оставайтесь на раздаче! Для того, чтобы скачать сам торрент-файл (который видит больше источников), а также для того, чтобы поблагодарить релизера, вам необходимо зарегистрироваться. Если регистрироваться лень - вы можете также попробовать скачать релиз по нашим партнерским ссылкам ниже.

[underverse.su].t27239.torrent
Трекер: Зарегистрирован   [ 07.05.2013 08:24 ]  

Статус: проверено (by Паукан at 07.05.2013 09:10)
Поблагодарили: 4 человека
Тип торрента: публичный - доступные источники с открытых трекеров: 
Размер: 1,46 GB (занимает 1/3 DVDR, для записи нужно 1 болванка DVDR/RW)
 
 

Яндекс.Метрика powered by Sphinx


В Н И М А Н И Е
Сайт не распространяет и не хранит электронные версии произведений, а лишь бесплатно и без коммерческой выгоды (не требуя взамен платы,
SMS и т.д.) предоставляет доступ к создаваемому пользователями каталогу ссылок на торрент-файлы, которые содержат только списки хеш-сумм.
Убедительная просьба с жалобами обращаться напрямую к пользователю, разместившему торрент файл.

Вверх