Loading...
Error

Джанго освобожденный / Django Unchained (Квентин Тарантино) [2012 г., драма, вестерн, приключения, комедия, BDRip] Dub(Rus,Ukr) + AVO(Сербин) + Original HQ Underverse

Статистика раздачи
Размер:  2,9 GB   |    Зарегистрирован:  3 года 8 месяцев   |    Скачан:  43 раза

Полного источника не было: 3 часа

Сидов:  0  |  0 KB/s  ]   Личеров:  0  |  0 KB/s  ]

* - сиды/пиры с внешних источников

   
 
Автор Сообщение

HQ Underverse 

07-Май-2013 08:18

Джанго освобожденный / Django Unchained


Год выпуска: 2012
Жанр: драма, вестерн, приключения, комедия
Страна: США
Режиссер: Квентин Тарантино
В ролях: Джейми Фокс, Кристоф Вальц, Леонардо ДиКаприо, Керри Вашингтон, Сэмюэл Л. Джексон, Уолтон Гоггинс, Деннис Кристофер, Джеймс Римар, Дон Джонсон, Франко Неро
Сюжет фильма:
Эксцентричный охотник за головами, также известный как «Дантист», промышляет отстрелом самых опасных преступников на Диком Западе. Работенка пыльная, и без надежного помощника ему не обойтись. Но как найти такого и желательно не очень дорогого? Беглый раб по имени Джанго — прекрасная кандидатура. Правда, у нового помощника свои мотивы — кое с чем надо разобраться…

  • Мировая премьера: 25 декабря 2012
  • Российская премьера: 17 января 2013, «WDSSPR»

/
Качество видео: BDRip

Продолжительность: 02:45:22
Формат: avi
Видео: XviD, 720x304, 2054 kbps
Аудио #1: русский, дублированный [лицензия], AC3 5.1, 448 kbps
Аудио #2: украинский, дублированный [лицензия], AC3 5.1, 448 kbps (отдельным файлом: здесь)
Аудио #3: русский, одноголосый закадровый [Ю. Сербин], AC3 5.1, 448 kbps (отдельным файлом: здесь)
Аудио #4: английский, оригинал, AC3 5.1, 448 kbps (отдельным файлом: здесь)
Субтитры #1: внешние, SRT, русский
Субтитры #2: внешние, SRT, украинский (на немецкую речь)
Субтитры #3: внешние, SRT, английский

Код:

General
Complete name                    : G:\Джанго Освобожденный\Django.Unchained.2012.BDRip.XviD.AC3.Rus.D.HQ.Underverse.avi
Format                           : AVI
Format/Info                      : Audio Video Interleave
Format profile                   : OpenDML
File size                        : 2.90 GiB
Duration                         : 2h 45mn
Overall bit rate                 : 2 513 Kbps
Writing application              : VirtualDubMod 1.5.10.2 (build 2540/release)
Writing library                  : VirtualDubMod build 2540/release

Video
ID                               : 0
Format                           : MPEG-4 Visual
Format profile                   : Streaming Video@L1
Format settings, BVOP            : Yes
Format settings, QPel            : No
Format settings, GMC             : No warppoints
Format settings, Matrix          : Custom
Muxing mode                      : Packed bitstream
Codec ID                         : XVID
Codec ID/Hint                    : XviD
Duration                         : 2h 45mn
Bit rate                         : 2 055 Kbps
Width                            : 720 pixels
Height                           : 304 pixels
Display aspect ratio             : 2.35
Frame rate                       : 23.976 fps
Resolution                       : 24 bits
Colorimetry                      : 4:2:0
Scan type                        : Progressive
Bits/(Pixel*Frame)               : 0.391
Stream size                      : 2.37 GiB (82%)
Writing library                  : XviD 64

Audio
ID                               : 1
Format                           : AC-3
Format/Info                      : Audio Coding 3
Codec ID                         : 2000
Duration                         : 2h 45mn
Bit rate mode                    : Constant
Bit rate                         : 448 Kbps
Channel(s)                       : 6 channels
Channel positions                : Front: L C R, Surround: L R, LFE
Sampling rate                    : 48.0 KHz
Stream size                      : 530 MiB (18%)
Alignment                        : Split accross interleaves
Interleave, duration             : 42 ms (1.00 video frame)
Interleave, preload duration     : 500 ms

General
Complete name                    : G:\Джанго Освобожденный\Django.Unchained.2012.BDRip.XviD.AC3.Rus.D.HQ.Underverse.ENG.ac3
Format                           : AC-3
Format/Info                      : Audio Coding 3
File size                        : 530 MiB
Duration                         : 2h 45mn
Overall bit rate                 : 448 Kbps

Audio
Format                           : AC-3
Format/Info                      : Audio Coding 3
Duration                         : 2h 45mn
Bit rate mode                    : Constant
Bit rate                         : 448 Kbps
Channel(s)                       : 6 channels
Channel positions                : Front: L C R, Surround: L R, LFE
Sampling rate                    : 48.0 KHz
Stream size                      : 530 MiB (100%)

General
Complete name                    : G:\Джанго Освобожденный\Django.Unchained.2012.BDRip.XviD.AC3.Rus.D.HQ.Underverse.SERBIN.ac3
Format                           : AC-3
Format/Info                      : Audio Coding 3
File size                        : 530 MiB
Duration                         : 2h 45mn
Overall bit rate                 : 448 Kbps

Audio
Format                           : AC-3
Format/Info                      : Audio Coding 3
Duration                         : 2h 45mn
Bit rate mode                    : Constant
Bit rate                         : 448 Kbps
Channel(s)                       : 6 channels
Channel positions                : Front: L C R, Surround: L R, LFE
Sampling rate                    : 48.0 KHz
Stream size                      : 530 MiB (100%)

General
Complete name                    : G:\Джанго Освобожденный\Django.Unchained.2012.BDRip.XviD.AC3.Rus.D.HQ.Underverse.UKR.ac3
Format                           : AC-3
Format/Info                      : Audio Coding 3
File size                        : 530 MiB
Duration                         : 2h 45mn
Overall bit rate                 : 448 Kbps

Audio
Format                           : AC-3
Format/Info                      : Audio Coding 3
Duration                         : 2h 45mn
Bit rate mode                    : Constant
Bit rate                         : 448 Kbps
Channel(s)                       : 6 channels
Channel positions                : Front: L C R, Surround: L R, LFE
Sampling rate                    : 48.0 KHz
Stream size                      : 530 MiB (100%)

Релиз группы:

picpicpic
Для увеличения картинки щелкните мышкой по превью

Этот торрент недоступен для скачивания без регистрации, однако доступен по публичной magnet-ссылке (источники с публичных трекеров). Перед использованием ссылки прочтите, пожалуйста Пользовательское соглашение, а также как можно дольше оставайтесь на раздаче! Для того, чтобы скачать сам торрент-файл (который видит больше источников), а также для того, чтобы поблагодарить релизера, вам необходимо зарегистрироваться. Если регистрироваться лень - вы можете также попробовать скачать релиз по нашим партнерским ссылкам ниже.

[underverse.su].t27238.torrent
Трекер: Зарегистрирован   [ 07.05.2013 08:18 ]  

Статус: проверено (by HQ Underverse at 07.05.2013 08:18)
Поблагодарили: 6 человек
Тип торрента: публичный - доступные источники с открытых трекеров: 
Размер: 2,9 GB (занимает 2/3 DVDR, для записи нужно 1 болванка DVDR/RW)
 
 
Похожие темы
Форум Тема Автор Торрент Отв. Посл. сооб.
Зарубежное кино [DVDRip, Low-Res HDRip, и т.д.] Джанго освобожденный / Django Unchained (Квентин Тарантино / Quentin Tarantino) [2012 г., драма, вестерн, комедия, приключения, HDRip] AVO (Ю.Сербин) 90ytr90
1 | 1

0 | 1119

32

16.04.2013 17:05

Зарубежное кино [DVDRip, Low-Res HDRip, и т.д.] Джанго освобожденный / Django Unchained (Квентин Тарантино) [2012 г., драма, комедия, приключения, вестерн, HDRip] Dub [Лицензия] TERRAN
2 | 0

0 | 583

33

27.04.2013 11:07

Зарубежное кино [DVDRip, Low-Res HDRip, и т.д.] Джанго освобожденный / Django Unchained ( Квентин Тарантино) [2012 г., драма, комедия, приключения, вестерн, HDRip] DUB [Лицензия] TERRAN
0 | 0

0 | 653

22

27.04.2013 11:24

Зарубежное кино [DVDRip, Low-Res HDRip, и т.д.] Джанго освобожденный / Django Unchained (Квентин Тарантино) [2012 г., драма, комедия, приключения, вестерн, BDRip] Dub 90ytr90
383 | 6

1 | 803

63

27.04.2013 12:24

Зарубежное кино [DVDRip, Low-Res HDRip, и т.д.] Джанго освобожденный / Django Unchained (Квентин Тарантино) [2012 г., драма, комедия, приключения, вестерн, BDRip] Dub 90ytr90
3 | 0

0 | 559

7

27.04.2013 15:00

Зарубежное кино [DVDRip, Low-Res HDRip, и т.д.] Джанго освобожденный / Django Unchained (Квентин Тарантино) [2012 г., драма, комедия, приключения, вестерн, BDRip-AVC ] Dub + Eng 90ytr90
2 | 0

0 | 725

17

27.04.2013 15:57

Зарубежное кино [HDDVDRip / BDRip / WEB-DL / HDTV 1080/720р] Джанго освобожденный / Django Unchained (Квентин Тарантино) [2012 г., драма, комедия, приключения, вестерн, BDRip 720p] Dub + 2 x AVO (Ю.Сербин, А.Дольский) + Eng 90ytr90
0 | 0

0 | 470

12

27.04.2013 11:36

Зарубежное кино [HDDVDRip / BDRip / WEB-DL / HDTV 1080/720р] Джанго освобожденный / Django Unchained (Квентин Тарантино) [2012 г., драма, комедия, приключения, вестерн, BDRip 720p] Dub + 2 x AVO (Ю.Сербин, А.Дольский) + Eng 90ytr90
2 | 0

0 | 492

10

27.04.2013 12:51

Зарубежное кино [HDDVDRip / BDRip / WEB-DL / HDTV 1080/720р] Джанго освобожденный / Django Unchained (Квентин Тарантино / Quentin Tarantino) [2012, США, драма, вестерн, комедия, приключения, BDRip 1080p] Dub + AVO (Живов) + AVO (Сербин) + VO (Doctor Joker) +... uzi2009
84 | 6

0 | 643

3

13.03.2014 12:54


Яндекс.Метрика powered by Sphinx


В Н И М А Н И Е
Сайт не распространяет и не хранит электронные версии произведений, а лишь бесплатно и без коммерческой выгоды (не требуя взамен платы,
SMS и т.д.) предоставляет доступ к создаваемому пользователями каталогу ссылок на торрент-файлы, которые содержат только списки хеш-сумм.
Убедительная просьба с жалобами обращаться напрямую к пользователю, разместившему торрент файл.

Вверх