Loading...
Error

«Берега» / Серии: 1-8 (8) ( Богдан Дробязко) [2012, Боевик, Мелодрама , SATRip]

Статистика раздачи
Размер:  4,3 GB   |    Зарегистрирован:  3 года 7 месяцев   |    Скачан:  8 раз

Полного источника не было: 2 года

Сидов:  0  |  0 KB/s  ]   Личеров:  0  |  0 KB/s  ]

* - сиды/пиры с внешних источников

   
 
Автор Сообщение

nemos Пол:Муж

06-Май-2013 14:38

Берега


Год выпуска: 2012
Жанр: Боевик, мелодрама
Страна: Россия
Режиссер: Богдан Дробязко
В ролях: Александр Носик, Екатерина Вуличенко, Елена Захарова, Ян Цапник, Сергей Баталов, Олег Комаров, Ксения Буравская, Сергей Дорогов, Владимир Носик, Леонид Громов
Сюжет фильма:
Майор-штабист Ковальский, зять столичного генерала, волею случая и своего лучшего друга и сослуживца Остроумова попадает из столицы в глухомань: пограничную заставу на российско-финской границе. Там чистенькому столичному штабисту приходится нелегко. Но он сумеет доказать всем, что он достоин звания российского солдата.


Качество видео: SatRip

Продолжительность: 00:48:49 серия
Формат: AVI
Видео: XviD, 720x400, 1374 kbps
Аудио: русский, MP3 2.0, 192 kbps

Код:

F:\С underverse-3 Фильмы\Berega.2013.XviD.SATRip.Files-x\Berega.08.seriya.2013.XviD.SATRip.Files-x.avi
   General
      Complete name : F:\С underverse-3 Фильмы\Berega.2013.XviD.SATRip.Files-x\Berega.08.seriya.2013.XviD.SATRip.Files-x.avi
      Format : AVI
      Format/Info : Audio Video Interleave
      File size : 550 MiB
      Duration : 48mn 49s
      Overall bit rate : 1 576 Kbps
      Writing application : VirtualDubMod 1.5.10.3 | www.virtualdub-fr.org || (build 2550/release)
      Writing library : VirtualDubMod build 2550/release
   Video #0
      ID : 0
      Format : MPEG-4 Visual
      Format profile : Advanced Simple@L5
      Format settings, BVOP : 1
      Format settings, QPel : No
      Format settings, GMC : No warppoints
      Format settings, Matrix : Default (H.263)
      Codec ID : XVID
      Codec ID/Hint : XviD
      Duration : 48mn 49s
      Bit rate : 1 374 Kbps
      Width : 720 pixels
      Height : 400 pixels
      Display aspect ratio : 16:9
      Frame rate : 25.000 fps
      Color space : YUV
      Chroma subsampling : 4:2:0
      Bit depth : 8 bits
      Scan type : Progressive
      Compression mode : Lossy
      Bits/(Pixel*Frame) : 0.191
      Stream size : 480 MiB (87%)
      Writing library : XviD 1.2.1 (UTC 2008-12-04)
   Audio #1
      ID : 1
      Format : MPEG Audio
      Format version : Version 1
      Format profile : Layer 3
      Codec ID : 55
      Codec ID/Hint : MP3
      Duration : 48mn 49s
      Bit rate mode : Constant
      Bit rate : 192 Kbps
      Channel(s) : 2 channels
      Sampling rate : 48.0 KHz
      Compression mode : Lossy
      Stream size : 67.1 MiB (12%)
      Alignment : Aligned on interleaves
      Interleave, duration : 40 ms (1.00 video frame)
      Interleave, preload duration : 504 ms
      Writing library : LAME3.98r
      Encoding settings : -m s -V 4 -q 2 -lowpass 18.6 -b 192
Семпл: http://multi-up.com/862693

picpicpicpicpicpicpicpicpicpicpicpicpicpicpicpicpicpicpic
Для увеличения картинки щелкните мышкой по превью
Сериал который был выложен и зарегистрирован более двух месяцев назад буду раздавать с 23.00ч до 06.00ч утра ( вина в этом не моя, а пользователей которые не поддерживают раздачу)

Этот торрент недоступен для скачивания без регистрации, однако доступен по публичной magnet-ссылке (источники с публичных трекеров). Перед использованием ссылки прочтите, пожалуйста Пользовательское соглашение, а также как можно дольше оставайтесь на раздаче! Для того, чтобы скачать сам торрент-файл (который видит больше источников), а также для того, чтобы поблагодарить релизера, вам необходимо зарегистрироваться. Если регистрироваться лень - вы можете также попробовать скачать релиз по нашим партнерским ссылкам ниже.

[underverse.su].t27201.torrent
Трекер: Зарегистрирован   [ 06.05.2013 14:38 ]  

Статус: проверено (by Чертёнок at 06.05.2013 14:44)
Поблагодарили: пока никто не поблагодарил...
Тип торрента: публичный - доступные источники с открытых трекеров: 
Размер: 4,3 GB (занимает 0,98 DVDR, для записи нужно 1 болванка DVDR/RW)
 
 


Последний раз редактировалось: nemos (18.12.2013 21:49), всего редактировалось 6 раз(а)

Чертёнок Пол:Муж

06-Май-2013 14:47

Сериал 2012 года! :)

nemos Пол:Муж

06-Май-2013 15:00

Чертёнок писал(а):

Сериал 2012 года! :)
Почему 2013 ? вот ссылка на http://www.kinopoisk.ru/film/702738/

Чертёнок Пол:Муж

06-Май-2013 15:03

На кинопоиске тоже ошибаютса это примьера 2013 а год выпуска 2012 на всех сайтах стоит 2012 :)

Яндекс.Метрика powered by Sphinx


В Н И М А Н И Е
Сайт не распространяет и не хранит электронные версии произведений, а лишь бесплатно и без коммерческой выгоды (не требуя взамен платы,
SMS и т.д.) предоставляет доступ к создаваемому пользователями каталогу ссылок на торрент-файлы, которые содержат только списки хеш-сумм.
Убедительная просьба с жалобами обращаться напрямую к пользователю, разместившему торрент файл.

Вверх