Loading...
Error

Дорогой мальчик (Александр Стефанович ) [1974 г., приключения, TVRip]

Статистика раздачи
Размер:  1,09 GB   |    Зарегистрирован:  3 года 6 месяцев   |    Скачан:  3 раза

Полного источника не было: 6 часов

Сидов:  0  |  0 KB/s  ]   Личеров:  0  |  0 KB/s  ]

* - сиды/пиры с внешних источников

   
 
Автор Сообщение

матроскин Пол:Муж

06-Май-2013 13:20

Дорогой мальчик


Год выпуска: 1974
Жанр: приключения
Страна: СССР
Режиссер: Александр Стефанович
В ролях: Сергей Крупеников, Александр Елистратов, Ирина Азер, Александр Белявский, Георгий Вицин, Виктор Гайнов, Расми Джабраилов, Сергей Мигицко, Леонид Оболенский, Владислав Стржельчик, Лембит Антон, Мария Ирд,...
Сюжет фильма:
Детский приключенческий фильм по пьесе Сергея Михалкова. Вместе с Джорджем, сыном миллионера Роб-Робсона, в руки шайки гангстеров попадает советский школьник Жора Тимохин. Поняв свою ошибку, мошенники решают вернуть Жору. Однако мальчик не собирается оставлять друга в беде...


Качество видео: TVRip

Продолжительность: 01:15:24
Формат: avi
Видео: DivX 5, 688x512, 1938 kbps
Аудио: русский, оригинал, MP3 2.0, 128 kbps

Код:

General
Complete name                    : C:\Users\Security\Videos\Мамонов\Дорогой мальчикTVRip.avi
Format                           : AVI
Format/Info                      : Audio Video Interleave
File size                        : 1.09 GiB
Duration                         : 1h 15mn
Overall bit rate                 : 2 076 Kbps
Writing application              : VirtualDubModRus 1.5.10.2 (build 2542/release)
Writing library                  : VirtualDubMod build 2542/release

Video
ID                               : 0
Format                           : MPEG-4 Visual
Format settings, BVOP            : Yes
Format settings, QPel            : No
Format settings, GMC             : No warppoints
Format settings, Matrix          : Default (H.263)
Muxing mode                      : Packed bitstream
Codec ID                         : DX50
Codec ID/Hint                    : DivX 5
Duration                         : 1h 15mn
Bit rate                         : 1 938 Kbps
Width                            : 688 pixels
Height                           : 512 pixels
Display aspect ratio             : 4/3
Frame rate                       : 25.000 fps
Resolution                       : 24 bits
Colorimetry                      : 4:2:0
Scan type                        : Progressive
Bits/(Pixel*Frame)               : 0.220
Stream size                      : 1.02 GiB (93%)
Writing library                  : DivX 6.8.3 (UTC 2008-06-07)

Audio
ID                               : 1
Format                           : MPEG Audio
Format version                   : Version 1
Format profile                   : Layer 3
Codec ID                         : 55
Codec ID/Hint                    : MP3
Duration                         : 1h 15mn
Bit rate mode                    : Constant
Bit rate                         : 128 Kbps
Channel(s)                       : 2 channels
Sampling rate                    : 48.0 KHz
Resolution                       : 16 bits
Stream size                      : 69.0 MiB (6%)
Alignment                        : Aligned on interleaves
Interleave, duration             : 40 ms (1.00 video frame)
Interleave, preload duration     : 504 ms
Writing library                  : LAME3.97
Encoding settings                : -m s -V 4 -q 2 -b 128

picpicpicpicpicpic
Для увеличения картинки щелкните мышкой по превью

Этот торрент недоступен для скачивания без регистрации, однако доступен по публичной magnet-ссылке (источники с публичных трекеров). Перед использованием ссылки прочтите, пожалуйста Пользовательское соглашение, а также как можно дольше оставайтесь на раздаче! Для того, чтобы скачать сам торрент-файл (который видит больше источников), а также для того, чтобы поблагодарить релизера, вам необходимо зарегистрироваться. Если регистрироваться лень - вы можете также попробовать скачать релиз по нашим партнерским ссылкам ниже.

[underverse.su].t27195.torrent
Трекер: Зарегистрирован   [ 06.05.2013 13:20 ]  

Статус: проверено (by Чертёнок at 06.05.2013 13:29)
Поблагодарили: пока никто не поблагодарил...
Тип торрента: публичный - доступные источники с открытых трекеров: 
Размер: 1,09 GB (занимает 0,25 DVDR, для записи нужно 1 болванка DVDR/RW)
 
 

матроскин Пол:Муж

06-Май-2013 13:23



.

Яндекс.Метрика powered by Sphinx


В Н И М А Н И Е
Сайт не распространяет и не хранит электронные версии произведений, а лишь бесплатно и без коммерческой выгоды (не требуя взамен платы,
SMS и т.д.) предоставляет доступ к создаваемому пользователями каталогу ссылок на торрент-файлы, которые содержат только списки хеш-сумм.
Убедительная просьба с жалобами обращаться напрямую к пользователю, разместившему торрент файл.

Вверх