Loading...
Error

Вопрос времени. Космический корабль. [2011 г., документальный, TVRip]

Статистика раздачи
Размер:  320 MB   |    Зарегистрирован:  3 года 6 месяцев   |    Скачан:  11 раз

Полного источника не было: 8 часов

Сидов:  0  |  0 KB/s  ]   Личеров:  0  |  0 KB/s  ]

* - сиды/пиры с внешних источников

   
 
Автор Сообщение

матроскин Пол:Муж

06-Май-2013 11:52

Вопрос времени. Космический корабль.


Год выпуска: 2011
Жанр: документальный
Страна: Россия
Режиссер: Игнат Павлов
Сюжет фильма:
Куда бы поехать в отпуск? Может быть на Марс? Фантастика совсем скоро станет реальностью! Юрий Гагарин в 1961 году о таком даже подумать не мог… А сейчас, спустя полста лет, учёные говорят о космическом туризме. Это всего лишь вопрос времени! Но это все благодаря уникальным разработкам Советского Союза.
Качество видео: TVRip

Продолжительность: 00:26:20
Формат: avi
Видео: XviD, 720x400, 1496 kbps
Аудио: русский, оригинал, MP1 2.0, 192 kbps

Код:

General
Complete name                    : C:\Users\Security\Desktop\Вопрос времени фильм\Вопрос времени Космич корабль.avi
Format                           : AVI
Format/Info                      : Audio Video Interleave
File size                        : 320 MiB
Duration                         : 26mn 20s
Overall bit rate                 : 1 699 Kbps
Writing application              : VirtualDubMod 1.5.10.3 | www.virtualdub-fr.org || (build 2550/release)
Writing library                  : VirtualDubMod build 2550/release

Video
ID                               : 0
Format                           : MPEG-4 Visual
Format profile                   : Streaming Video@L1
Format settings, BVOP            : Yes
Format settings, QPel            : No
Format settings, GMC             : No warppoints
Format settings, Matrix          : Custom
Codec ID                         : XVID
Codec ID/Hint                    : XviD
Duration                         : 26mn 20s
Bit rate                         : 1 497 Kbps
Width                            : 720 pixels
Height                           : 400 pixels
Display aspect ratio             : 16/9
Frame rate                       : 25.000 fps
Resolution                       : 24 bits
Colorimetry                      : 4:2:0
Scan type                        : Progressive
Bits/(Pixel*Frame)               : 0.208
Stream size                      : 282 MiB (88%)
Writing library                  : XviD 1.2.1 (UTC 2008-12-04)

Audio
ID                               : 1
Format                           : MPEG Audio
Format version                   : Version 1
Format profile                   : Layer 2
Codec ID                         : 50
Codec ID/Hint                    : MP1
Duration                         : 26mn 20s
Bit rate mode                    : Constant
Bit rate                         : 192 Kbps
Channel(s)                       : 2 channels
Sampling rate                    : 48.0 KHz
Resolution                       : 16 bits
Stream size                      : 36.2 MiB (11%)
Alignment                        : Aligned on interleaves
Interleave, duration             : 40 ms (1.00 video frame)
Interleave, preload duration     : 504 ms

picpicpicpicpicpic
Для увеличения картинки щелкните мышкой по превью

Этот торрент недоступен для скачивания без регистрации, однако доступен по публичной magnet-ссылке (источники с публичных трекеров). Перед использованием ссылки прочтите, пожалуйста Пользовательское соглашение, а также как можно дольше оставайтесь на раздаче! Для того, чтобы скачать сам торрент-файл (который видит больше источников), а также для того, чтобы поблагодарить релизера, вам необходимо зарегистрироваться. Если регистрироваться лень - вы можете также попробовать скачать релиз по нашим партнерским ссылкам ниже.

[underverse.su].t27190.torrent
Трекер: Зарегистрирован   [ 06.05.2013 11:52 ]  

Статус: проверено (by Чертёнок at 06.05.2013 12:18)
Поблагодарили: 2 человека
Тип торрента: публичный - доступные источники с открытых трекеров: 
Размер: 320 MB (занимает 0,07 DVDR, для записи нужно 1 болванка DVDR/RW)
 
 


Последний раз редактировалось: матроскин (06.05.2013 12:05), всего редактировалось 1 раз

матроскин Пол:Муж

06-Май-2013 11:55


Яндекс.Метрика powered by Sphinx


В Н И М А Н И Е
Сайт не распространяет и не хранит электронные версии произведений, а лишь бесплатно и без коммерческой выгоды (не требуя взамен платы,
SMS и т.д.) предоставляет доступ к создаваемому пользователями каталогу ссылок на торрент-файлы, которые содержат только списки хеш-сумм.
Убедительная просьба с жалобами обращаться напрямую к пользователю, разместившему торрент файл.

Вверх