Loading...
Error

Реформа МВД - Что изменилось? [2012, документальный, TVRip]

Статистика раздачи
Размер:  472 MB   |    Зарегистрирован:  3 года 6 месяцев   |    Скачан:  4 раза
Сидов:  1  |  0 KB/s  ]   Личеров:  0  |  0 KB/s  ]

* - сиды/пиры с внешних источников

   
 
Автор Сообщение

матроскин Пол:Муж

06-Май-2013 07:31

Реформа МВД - Что изменилось?


Год выпуска: 2012
Жанр: документальный
Страна: Россия
Выпущено: "Радио ЭХО Москвы"
Участвуют: В.Овчинский, генерал-майор милиции в отставке, бывший глава российского бюро Интерпола и В.Мартынов, подполковник юстиции в отставке, бывший глава пресс-службы СК (следственного комитета) при МВД РФ.
Сюжет фильма:
Система МВД загнила. И если не будет заменено руководство МВД, министр Нургалиев, то ничего не изменится в нашей доблестной теперь полиции. он не смог провести реформу. Разве у нас реально сократилась преступность, что надо было так сокращать численность полиции?
За счёт аттестации сокращались неудобные люди – с характером, которые могут высказать какие-то упрёки начальству, они вылетели из системы, а люди, которые выполняли волю своих руководителей, остались. Надо ли нам сокращать вообще численность полиции и надо ли нам сокращать численность отделений полиции. А получилось так, что министр внутренних дел выходит на последней итоговой коллегии и с гордостью говорит, что нам удалось на 40% сократить количество подразделений полиции. А что тут… гордиться-то чем? То есть затруднительным стало осуществить доступ граждан к правосудию. Особенно в дальних районах, в сельской, таёжной местности, количество отделений сократилось.
Качество видео: TVRip

Продолжительность: 00:47:01
Формат: avi
Видео: DivX 5, 720x544, 1200 kbps
Аудио: русский, оригинал, MP3 2.0, 192 kbps

Код:

General
Complete name                    : C:\Users\Security\Videos\Мамонов\Reforma_MVD.avi
Format                           : AVI
Format/Info                      : Audio Video Interleave
File size                        : 472 MiB
Duration                         : 47mn 1s
Overall bit rate                 : 1 402 Kbps
Writing library                  : VirtualDub build 32661/release

Video
ID                               : 0
Format                           : MPEG-4 Visual
Format settings, BVOP            : Yes
Format settings, QPel            : No
Format settings, GMC             : No warppoints
Format settings, Matrix          : Default (H.263)
Muxing mode                      : Packed bitstream
Codec ID                         : DX50
Codec ID/Hint                    : DivX 5
Duration                         : 47mn 1s
Bit rate                         : 1 201 Kbps
Width                            : 720 pixels
Height                           : 544 pixels
Display aspect ratio             : 4/3
Frame rate                       : 25.000 fps
Resolution                       : 24 bits
Colorimetry                      : 4:2:0
Scan type                        : Progressive
Bits/(Pixel*Frame)               : 0.123
Stream size                      : 404 MiB (86%)
Writing library                  : DivX 6.8.5

Audio
ID                               : 1
Format                           : MPEG Audio
Format version                   : Version 1
Format profile                   : Layer 3
Codec ID                         : 55
Codec ID/Hint                    : MP3
Duration                         : 47mn 1s
Bit rate mode                    : Constant
Bit rate                         : 192 Kbps
Channel(s)                       : 2 channels
Sampling rate                    : 44.1 KHz
Resolution                       : 16 bits
Video delay                      : 9ms
Stream size                      : 64.6 MiB (14%)
Alignment                        : Split accross interleaves
Interleave, duration             : 40 ms (1.00 video frame)
Interleave, preload duration     : 500 ms

picpicpicpicpic
Для увеличения картинки щелкните мышкой по превью

Этот торрент недоступен для скачивания без регистрации, однако доступен по публичной magnet-ссылке (источники с публичных трекеров). Перед использованием ссылки прочтите, пожалуйста Пользовательское соглашение, а также как можно дольше оставайтесь на раздаче! Для того, чтобы скачать сам торрент-файл (который видит больше источников), а также для того, чтобы поблагодарить релизера, вам необходимо зарегистрироваться. Если регистрироваться лень - вы можете также попробовать скачать релиз по нашим партнерским ссылкам ниже.

[underverse.su].t27188.torrent
Трекер: Зарегистрирован   [ 06.05.2013 07:31 ]  

Статус: проверено (by Печаль'ka at 06.05.2013 08:36)
Поблагодарили: пока никто не поблагодарил...
Тип торрента: публичный - доступные источники с открытых трекеров: 
Размер: 472 MB (занимает 0,11 DVDR, для записи нужно 1 болванка DVDR/RW)
 
 

матроскин Пол:Муж

06-Май-2013 07:36

матроскин Пол:Муж

23-Май-2013 10:21

Уволены полицейские, избившие активиста «Синих ведерок» в Питере
Газета «Труд» ( 23 мая 2013 года )



Руководство управления МВД по Санкт-Петербургу уволило ряд сотрудников полиции, причастных к избиению активистов движения «Синие ведерки» в районе Колпино.

«По результатам служебной проверки двое инспекторов экипажа дорожно-патрульной службы, присутствовавшие на месте инцидента, уволены из органов внутренних дел. Такое же жесткое решение принято в отношении их коллеги — инспектора ДПС, который, находясь в свободное от службы время, также оказался участником конфликта», — говорится в сообщении на сайте питерского главка МВД.

Кроме того, уволены начальник полиции ОМВД России по Колпинскому району, начальник колпинского ОГИБДД и его заместитель. Начальнику ОМВД России и его заместителю объявлены строгие выговоры.

Непосредственный руководитель провинившихся полицейских, командир взвода ДПС, понижен в должности.

На днях стало известно об инциденте с избиением активиста движения «Синие ведерки» Герогия Кокорина. По версии коллеги Кокорина Петра Шкуматова, он мог быть избит за то, что вместе со своей камерой случайно оказался свидетелем похищения автомобиля, который сотрудники ГИБДД города Колпино Ленинградской области воровали под видом эвакуации.

Местные автомобилисты, просматривая видеозапись ситуации, предшествовавшей инциденту, опознали в одном из нападавших инспектора дорожно-постовой службы Александра Хребтова.

Яндекс.Метрика powered by Sphinx


В Н И М А Н И Е
Сайт не распространяет и не хранит электронные версии произведений, а лишь бесплатно и без коммерческой выгоды (не требуя взамен платы,
SMS и т.д.) предоставляет доступ к создаваемому пользователями каталогу ссылок на торрент-файлы, которые содержат только списки хеш-сумм.
Убедительная просьба с жалобами обращаться напрямую к пользователю, разместившему торрент файл.

Вверх