Loading...
Error

Правда об НЛО. Архивы НЛО - Канада / UFO [2008, документальный, SATRip]

Статистика раздачи
Размер:  353 MB   |    Зарегистрирован:  3 года 6 месяцев   |    Скачан:  7 раз

Полного источника не было: 6 дней

Сидов:  0  |  0 KB/s  ]   Личеров:  0  |  0 KB/s  ]

* - сиды/пиры с внешних источников

   
 
Автор Сообщение

матроскин Пол:Муж

06-Май-2013 05:45

Правда об НЛО. Архивы НЛО - Канада / UFO


Год выпуска: 2008
Жанр: документальный
Страна: США
Режиссер: Ли Шнайдер, Шон Мэлли
Участвуют: Уильям Полетич, Томас Ризо
Сюжет фильма:
В фильме «Правда об НЛО. Архивы НЛО: Канада» рассказывается о крушении НЛО 4 октября 1967 г в Канадской провинции Новая Шотландия в порту Шерк Харбор. Одной из самых интригующих тем нашего времени по-прежнему является вопрос: одни ли мы во Вселенной? Много лет назад, когда мир жил еще только слушками об НЛО, некоторые знали гораздо больше. Долгие годы участников загадочных событий заставляли молчать. Только ныне они заговорили.
Качество видео: SatRip

Продолжительность: 00:43:31
Формат: avi
Видео: XviD, 700x560, 1059 kbps
Аудио: русский, Профессиональный (двухголосый), MP1 1, 64 kbps

Код:

General
Complete name                    : C:\Users\Security\Videos\Мамонов\Канада\NLO_Kanada.avi
Format                           : AVI
Format/Info                      : Audio Video Interleave
File size                        : 353 MiB
Duration                         : 43mn 31s
Overall bit rate                 : 1 133 Kbps
Writing application              : VirtualDubModRus 1.5.10.2 (build 2540/release)
Writing library                  : VirtualDubMod build 2540/release

Video
ID                               : 0
Format                           : MPEG-4 Visual
Format profile                   : Streaming Video@L1
Format settings, BVOP            : Yes
Format settings, QPel            : No
Format settings, GMC             : No warppoints
Format settings, Matrix          : Default (H.263)
Muxing mode                      : Packed bitstream
Codec ID                         : XVID
Codec ID/Hint                    : XviD
Duration                         : 43mn 31s
Bit rate                         : 1 059 Kbps
Width                            : 700 pixels
Height                           : 560 pixels
Display aspect ratio             : 5/4
Frame rate                       : 25.000 fps
Resolution                       : 24 bits
Colorimetry                      : 4:2:0
Scan type                        : Progressive
Bits/(Pixel*Frame)               : 0.108
Stream size                      : 330 MiB (93%)
Writing library                  : XviD 1.2.0SMP (UTC 2006-01-08)

Audio
ID                               : 1
Format                           : MPEG Audio
Format version                   : Version 1
Format profile                   : Layer 2
Codec ID                         : 50
Codec ID/Hint                    : MP1
Duration                         : 43mn 31s
Bit rate mode                    : Constant
Bit rate                         : 64.0 Kbps
Channel(s)                       : 1 channel
Sampling rate                    : 44.1 KHz
Resolution                       : 16 bits
Stream size                      : 19.9 MiB (6%)
Alignment                        : Split accross interleaves
Interleave, duration             : 40 ms (1.00 video frame)
Interleave, preload duration     : 500 ms

picpicpicpicpic
Для увеличения картинки щелкните мышкой по превью

Этот торрент недоступен для скачивания без регистрации, однако доступен по публичной magnet-ссылке (источники с публичных трекеров). Перед использованием ссылки прочтите, пожалуйста Пользовательское соглашение, а также как можно дольше оставайтесь на раздаче! Для того, чтобы скачать сам торрент-файл (который видит больше источников), а также для того, чтобы поблагодарить релизера, вам необходимо зарегистрироваться. Если регистрироваться лень - вы можете также попробовать скачать релиз по нашим партнерским ссылкам ниже.

[underverse.su].t27178.torrent
Трекер: Зарегистрирован   [ 06.05.2013 05:45 ]  

Статус: проверено (by Печаль'ka at 06.05.2013 08:40)
Поблагодарили: пока никто не поблагодарил...
Тип торрента: публичный - доступные источники с открытых трекеров: 
Размер: 353 MB (занимает 0,08 DVDR, для записи нужно 1 болванка DVDR/RW)
 
 
Похожие темы
Форум Тема Автор Торрент Отв. Посл. сооб.
Научно-популярные фильмы Правда об алкоголе: Общее дело-Алкоголь и преступления. Тест на совместимость [2010 г., Документальный, DVDRip] trezvocnua
0 | 0

1 | 1169

10

31.08.2011 08:39

Научно-популярные фильмы Правда об алкоголе: Общее дело - День Рождения [2010 г., Документальный, DVDRip] trezvocnua
0 | 0

1 | 1251

8

31.08.2011 08:36

Научно-популярные фильмы Правда об алкоголе: Общее дело - Большая алкогольная болезнь[2010 г., Документальный, DVDRip] trezvocnua
0 | 0

1 | 1408

15

31.08.2011 08:30

Научно-популярные фильмы Правда об алкоголе: Общее дело - Выход есть [2010 г., Документальный, DVDRip] trezvocnua
0 | 0

1 | 1784

15

31.08.2011 08:34

Научно-популярные фильмы Правда об НЛО. След из прошлого / UFO Files (Ли Шнайдер, Шон Мэлли) [2008, документальный, TVRip] матроскин
0 | 0

1 | 706

6

03.05.2013 11:46

Научно-популярные фильмы Правда об НЛО. Архивы НЛО: Китай / UFO [2008, документальный, TVRip] матроскин
0 | 0

1 | 501

4

03.05.2013 12:19

Научно-популярные фильмы Правда об НЛО. Мексика / UFO [2008, документальный, TVRip] матроскин
0 | 1

1 | 492

5

03.05.2013 12:27

Научно-популярные фильмы Правда об НЛО. День после Розвелла / UFO Files. Roswell [2008, документальный, SATRip] матроскин
0 | 0

1 | 1096

7

06.05.2013 05:59

Научно-популярные фильмы Правда об НЛО. Белый дом / UFO Files [2009, документальный, SATRip] матроскин
0 | 0

1 | 883

5

06.05.2013 06:13

Научно-популярные фильмы Правда об НЛО. Бразильский Розвелл / UFO Files: Brazil's Roswell [2008, документальный, SATRip] матроскин
0 | 0

1 | 992

8

06.05.2013 06:38

матроскин Пол:Муж

06-Май-2013 05:47


Яндекс.Метрика powered by Sphinx


В Н И М А Н И Е
Сайт не распространяет и не хранит электронные версии произведений, а лишь бесплатно и без коммерческой выгоды (не требуя взамен платы,
SMS и т.д.) предоставляет доступ к создаваемому пользователями каталогу ссылок на торрент-файлы, которые содержат только списки хеш-сумм.
Убедительная просьба с жалобами обращаться напрямую к пользователю, разместившему торрент файл.

Вверх