Loading...
Error

Хроника октябрьских событий 1993г [ Документальный, VHSRip]

Статистика раздачи
Размер:  1,37 GB   |    Зарегистрирован:  3 года 7 месяцев   |    Скачан:  13 раз
Сидов:  1  |  0 KB/s  ]   Личеров:  0  |  0 KB/s  ]

* - сиды/пиры с внешних источников

   
 
Автор Сообщение

матроскин Пол:Муж

06-Май-2013 05:22

Хроника октябрьских событий 1993 г


Год выпуска: 1993
Жанр: документальный, исторический
Страна: Россия
Выпущено: Трудовая Россия
Участвуют: Александр Невзоров ведущий передачи 600 секунд, Александр Руцкой, Хасбулатов, Ельцин, Анпилов, генерал Макашов и другие
Сюжет фильма:
Павшим в борьбе за Советскую власть в октябре 1993г. «Трудовая Россия» посвящает этот фильм.
"Теперь, по прошествии многих лет с той трагической поры высочайшего духовного взлета и почти смертного, гибельного падения в пропасть безысходности, особенно четко видится все подлинное, истинное, светлое и все наносное, лживое и подлое.
Ведь было нечто большее, чем просто танки, циничный расстрел парламента, героическое сидение за белыми стенами... Да, помимо этого было Народное Восстание, которое нарушило планы правящего режима, Восстание, которого насмерть перепугались преступную власть Ельцина - ведь когда девятый вал народного гнева смел со своего пути правительственные преграды, обратил в бегство сотни тысяч милиционеров и солдат, «вождей» охватил паралич бездействия, ужаса. И преступная власть Ельцина пошла на Чудовищной расстрел и привела к кровавой трагедии!
И все же был один день, даже полдня подлинной свободы, пусть только в Москве, подлинного Народовластия! Мужество и стойкость депутатов заслуживают уважения. Но вне стен гибли простые, безвестные и поныне люди - подлинные герои народно-освободительного восстания, те, по горам трупов которых пришла Ельцинская власть
Власть имущие сделали все возможное, чтобы люди России и мира ничего не знали о Восстании, в архивах ТВ и спецслужб хранятся километры видеолент, запечатлевших сей непостижимый, ослепительный взрыв народной мощи, народного духа... Но нам показывают одни и те же кадры официальной версии октябрьских событий, нас заставляют жевать одну и ту же жвачку, вглядываться в одни и те же лица, подсовывают фальшивки, путают следы, сбивают с толку, морочат нам головы велеречивой болтовней про провокации, хитроумные планы охранки, про коварные замыслы коммунистов.
Мы верим, что рано или поздно подлинная Правда, не «правда» Ельцинских преступников и Лужковских Бандеровцев-снайперов которые расстреливали народ, а Правда народная всплывет на поверхность. И мы поймем, что у России был шанс избежать позорной участи колонии, шанс вернуть себе статус великой свободной Державы. Мы упустили этот шанс, мы сами надели на себя кандалы... И все же он, тот октябрьский далекий день, тот миг свободы был - и его не вычеркнуть из Истории".
Качество видео: VHSRip

Продолжительность: 01:49:27
Формат: avi
Видео: XviD, 528x400, 1590 kbps
Аудио: русский, оригинал, AC3 1.0, 192 kbps

Код:

General
Complete name                    : C:\Users\Security\Videos\Мамонов\xronika oktyabrskix sobitiy 1993.avi
Format                           : AVI
Format/Info                      : Audio Video Interleave
File size                        : 1.37 GiB
Duration                         : 1h 49mn
Overall bit rate                 : 1 790 Kbps
Writing application              : VirtualDub-MPEG2-Rus 1.5.4.1 (build 2178/release)
Writing library                  : VirtualDubMod build 2178/release

Video
ID                               : 0
Format                           : MPEG-4 Visual
Format profile                   : Simple@L3
Format settings, BVOP            : Yes
Format settings, QPel            : No
Format settings, GMC             : No warppoints
Format settings, Matrix          : Custom
Codec ID                         : XVID
Codec ID/Hint                    : XviD
Duration                         : 1h 49mn
Bit rate                         : 1 591 Kbps
Width                            : 528 pixels
Height                           : 400 pixels
Display aspect ratio             : 4/3
Frame rate                       : 25.000 fps
Resolution                       : 24 bits
Colorimetry                      : 4:2:0
Scan type                        : Progressive
Bits/(Pixel*Frame)               : 0.301
Stream size                      : 1.22 GiB (89%)
Writing library                  : XviD 1.1.0 Beta2 (UTC 2005-04-04)

Audio
ID                               : 1
Format                           : AC-3
Format/Info                      : Audio Coding 3
Codec ID                         : 2000
Duration                         : 1h 49mn
Bit rate mode                    : Constant
Bit rate                         : 192 Kbps
Channel(s)                       : 1 channel
Channel positions                : C
Sampling rate                    : 48.0 KHz
Stream size                      : 150 MiB (11%)
Alignment                        : Split accross interleaves
Interleave, duration             : 96 ms (2.40 video frames)
Interleave, preload duration     : 96 ms
Language                         : Russian

picpicpicpic
Для увеличения картинки щелкните мышкой по превью

Этот торрент недоступен для скачивания без регистрации, однако доступен по публичной magnet-ссылке (источники с публичных трекеров). Перед использованием ссылки прочтите, пожалуйста Пользовательское соглашение, а также как можно дольше оставайтесь на раздаче! Для того, чтобы скачать сам торрент-файл (который видит больше источников), а также для того, чтобы поблагодарить релизера, вам необходимо зарегистрироваться. Если регистрироваться лень - вы можете также попробовать скачать релиз по нашим партнерским ссылкам ниже.

[underverse.su].t27176.torrent
Трекер: Зарегистрирован   [ 06.05.2013 05:22 ]  

Статус: проверено (by Печаль'ka at 06.05.2013 08:40)
Поблагодарили: 2 человека
Тип торрента: публичный - доступные источники с открытых трекеров: 
Размер: 1,37 GB (занимает 0,31 DVDR, для записи нужно 1 болванка DVDR/RW)
 
 

матроскин Пол:Муж

06-Май-2013 05:26

Качайте и смотрите документальные фильмы!

.

Hranitel Пол:Муж

03-Янв-2014 18:56

Октябрь 1993 года - величайшее преступление века наряду с развалом СССР. Власть была отнята у обманутого народа кучкой моральных отморозков. :evil:
с помощью хитрых махинаций они до сих пор передают краденую власть друг другу. Только дурацкая наклонность нашего народа подчиняться тем, кто присвоил себе незаконно различные громкие звания позволяет им криво рулить ветхим кораблём с названием РФ. Незаконность власти определяется: 1. Незаконным развалом СССР вопреки всенародному голосованию на референдуме. 2. Разгоном Ельциным Верховного Совета. 3. Узурпацией власти этим недееспособным алкоголиком. 4. Фальсификацией выборов 1996 года. 5. Передачей им власти "преемнику"!? 6. Манипуляциями с такой же передачей власти друг другу. Те, кому мы подчиняемся - просто преступные самозванцы, взбунтовавшиеся против народа. Советую качать всем. Автору большое спасибо! :good:

Яндекс.Метрика powered by Sphinx


В Н И М А Н И Е
Сайт не распространяет и не хранит электронные версии произведений, а лишь бесплатно и без коммерческой выгоды (не требуя взамен платы,
SMS и т.д.) предоставляет доступ к создаваемому пользователями каталогу ссылок на торрент-файлы, которые содержат только списки хеш-сумм.
Убедительная просьба с жалобами обращаться напрямую к пользователю, разместившему торрент файл.

Вверх