Loading...
Error

Дом с паранормальными явлениями / A Haunted House (Майкл Тиддес / Michael Tiddes) [2013 г., ужасы, комедия, BDRip] Dub

Статистика раздачи
Размер:  745 MB   |    Зарегистрирован:  3 года 6 месяцев   |    Скачан:  12 раз

Полного источника не было: 14 дней

Сидов:  0  |  0 KB/s  ]   Личеров:  0  |  0 KB/s  ]

* - сиды/пиры с внешних источников

   
 
Автор Сообщение

Gaarochi Пол:Муж

05-Май-2013 11:40

Дом с паранормальными явлениями / A Haunted House
«Здесь должен быть слоган»


Год выпуска: 2013
Жанр: ужасы, комедия
Страна: США / Automatik Entertainment, Endgame Entertainment, Wayans Bros. Entertainment
Режиссер: Майкл Тиддес / Michael Tiddes
В ролях: Марлон Уайанс (Malcolm), Эссенс Эткинс (Kisha), Седрик «Развлекатель» (Father Williams), Ник Свардсон (Chip the Psychic), Дэвид Кокнер (Dan the Security Man), Дейв Шеридан (Bob), Марлин Форте (Rosa), Аланна Юбак (Jenny), Эндрю Дэйли (Steve), Эффион Крокетт (Ray-Ray), Дж.Б. Смув (Kisha's Dad), Робин Тиди (Kisha's Mom)
Сюжет фильма:
Малкольм и Киша переезжают в дом своей мечты, но скоро понимают, что там уже проживает демон. Когда Киша становится одержимой, Малкольм обращается за помощью к священнику, экстрасенсу и команде охотников за привидениями.


  • Мировая премьера: 11 января 2013
  • Российская премьера: 17 января 2013, «West»
  • Рейтинг MPAA: R лицам до 17 лет обязательно присутствие взрослого






Качество видео: BDRip [Исходник: A.Haunted.House.2013.1080p.BluRay.AVC.DTS-HD.MA.5.1-PublicHD]
Продолжительность: 01:26:25
Формат: AVI
Видео: XviD, 656x352 , ~1068 kbps avg
Аудио: русский, дублированный, MP3 2.0, ~128.00 kbps avg

Код:

Общее
 Полное имя                               : H:\Dom_s_paranormalnymi_yavleniyami_2013_BDRip_745_by_Dalemake.avi
 Формат                                   : AVI
 Формат/Информация                        : Audio Video Interleave
 Размер файла                             : 745 Мбайт
 Продолжительность                        : 1 ч. 26 м.
 Общий поток                              : 1206 Кбит/сек
 Программа кодирования                    : VirtualDubMod 1.5.10.3 | www.virtualdub-fr.org || (build 2550/release)
 Библиотека кодирования                   : VirtualDubMod build 2550/release

Видео
 Идентификатор                            : 0
 Формат                                   : MPEG-4 Visual
 Профиль формата                          : Advanced Simple@L5
 Параметр BVOP формата                    : 2
 Параметр QPel формата                    : Нет
 Параметр GMC формата                     : Без точки перехода
 Параметр матрицы формата                 : Выборочная
 Идентификатор кодека                     : XVID
 Идентификатор кодека/Подсказка           : XviD
 Продолжительность                        : 1 ч. 26 м.
 Битрейт                                  : 1069 Кбит/сек
 Ширина                                   : 656 пикселей
 Высота                                   : 352 пикселя
 Соотношение сторон                       : 1,85:1
 Частота кадров                           : 23,976 кадра/сек
 Цветовое пространство                    : YUV
 Субдискретизация насыщенности            : 4:2:0
 Битовая глубина                          : 8 бит
 Тип развёртки                            : Прогрессивная
 Метод сжатия                             : С потерями
 Бит/(Пиксели*Кадры)                      : 0.193
 Размер потока                            : 661 Мбайт (89%)
 Библиотека кодирования                   : XviD 73

Аудио
 Идентификатор                            : 1
 Формат                                   : MPEG Audio
 Версия формата                           : Version 1
 Профиль формата                          : Layer 3
 Идентификатор кодека                     : 55
 Идентификатор кодека/Подсказка           : MP3
 Продолжительность                        : 1 ч. 26 м.
 Вид битрейта                             : Постоянный
 Битрейт                                  : 128 Кбит/сек
 Каналы                                   : 2 канала
 Частота                                  : 48,0 КГц
 Метод сжатия                             : С потерями
 Размер потока                            : 79,1 Мбайт (11%)
 Выравнивание                             : Соединение по промежуткам
 Продолжительность промежутка             : 42  мс. (1,00 видеокадр)
 Время предзагрузки промежутка            : 504  мс.
 Библиотека кодирования                   : LAME3.99r
 Настройки программы                      : -m s -V 4 -q 2 -lowpass 17 -b 128

picpicpic
Для увеличения картинки щелкните мышкой по превью

Этот торрент недоступен для скачивания без регистрации, однако доступен по публичной magnet-ссылке (источники с публичных трекеров). Перед использованием ссылки прочтите, пожалуйста Пользовательское соглашение, а также как можно дольше оставайтесь на раздаче! Для того, чтобы скачать сам торрент-файл (который видит больше источников), а также для того, чтобы поблагодарить релизера, вам необходимо зарегистрироваться. Если регистрироваться лень - вы можете также попробовать скачать релиз по нашим партнерским ссылкам ниже.

[underverse.su].t27132.torrent
Трекер: Зарегистрирован   [ 05.05.2013 11:40 ]  

Статус: проверено (by Чертёнок at 05.05.2013 11:50)
Поблагодарили: пока никто не поблагодарил...
Тип торрента: публичный - доступные источники с открытых трекеров: 
Размер: 745 MB (занимает 0,17 DVDR, для записи нужно 1 болванка DVDR/RW)
 
 
Похожие темы
Форум Тема Автор Торрент Отв. Посл. сооб.
Зарубежное кино [DVDRip, Low-Res HDRip, и т.д.] Дом с паранормальными явлениями / A Haunted House (Майкл Тиддес) [2013 г., ужасы, комедия, HDRip] DUB TERRAN
72 | 3

0 | 1300

71

25.04.2013 11:51

Зарубежное кино [DVDRip, Low-Res HDRip, и т.д.] Дом с паранормальными явлениями / A Haunted House (Майкл Тиддес) [2013 г., ужасы, комедия, BDRip-AVC] Dub + Eng 90ytr90
4 | 0

0 | 983

40

25.04.2013 15:57

T Зарубежное кино [DVDRip, Low-Res HDRip, и т.д.] Дом с паранормальными явлениями 2 / A Haunted House 2 (Майкл Тиддес) [2014 г., ужасы, комедия, WEB-DLRip] Dub [чистый звук] Паукан
6 | 4

0 | 1221

37

07.07.2014 08:19

Зарубежное кино [HDDVDRip / BDRip / WEB-DL / HDTV 1080/720р] Дом с паранормальными явлениями / A Haunted House (Майкл Тиддес) [2013 г., ужасы, комедия, BDRip 720p] Dub + Eng 90ytr90
0 | 0

0 | 358

5

25.04.2013 15:19

Зарубежное кино [HDDVDRip / BDRip / WEB-DL / HDTV 1080/720р] Дом с паранормальными явлениями / A Haunted House (Майкл Тиддес) [2013 г., ужасы, комедия, BDRip 1080p] Dub + Eng 90ytr90
1 | 0

0 | 439

3

25.04.2013 15:49

T Зарубежное кино [HDDVDRip / BDRip / WEB-DL / HDTV 1080/720р] Дом с паранормальными явлениями 2 / A Haunted House 2 (Майкл Тиддес / Michael Tiddes) [2014, США, Ужасы, комедия, WEB-DL 720p] Dub (Line) + Sub Eng + Original Eng uzi2009
10 | 0

0 | 806

16

01.08.2014 10:21

T Новинки кино [CAMRip, TS, DVDScr, WP, TC] Дом с паранормальными явлениями 2 / A Haunted House 2 (Майкл Тиддес / Michael Tiddes) [2014 г., ужасы, комедия, CAMRip] Dub 90ytr90
0 | 0

0 | 587

28

01.05.2014 22:38


Яндекс.Метрика powered by Sphinx


В Н И М А Н И Е
Сайт не распространяет и не хранит электронные версии произведений, а лишь бесплатно и без коммерческой выгоды (не требуя взамен платы,
SMS и т.д.) предоставляет доступ к создаваемому пользователями каталогу ссылок на торрент-файлы, которые содержат только списки хеш-сумм.
Убедительная просьба с жалобами обращаться напрямую к пользователю, разместившему торрент файл.

Вверх