Loading...
Error

«Холостяк» / Серии: 1-4 (4) ( Владимир Янковский) [2013, Комедия, Криминал , SATRip]

Статистика раздачи
Размер:  2,15 GB   |    Зарегистрирован:  3 года 7 месяцев   |    Скачан:  11 раз

Полного источника не было: 2 года

Сидов:  0  |  0 KB/s  ]   Личеров:  0  |  0 KB/s  ]

* - сиды/пиры с внешних источников

   
 
Автор Сообщение

nemos Пол:Муж

04-Май-2013 14:46

Холостяк


Год выпуска: 2013
Жанр: комедия, криминал
Страна: Россия
Режиссер: Владимир Янковский
В ролях: Владимир Епифанцев, Лилия Мэй, Алексей Панин, Глеб Сердюков, Михаил Мамаев, Владимир Янковский, Петр Морозов, Виталий Новиков, Максим Панькив, Валерий Астахов
Сюжет фильма:
Действие картины разворачивается в Одессе, где происходит убийство криминального авторитета по кличке Шалый. Группировка, в которую входил Шалый, занимается наркотрафиком в Турцию. Руководит всей одесской наркомафией Бурый — неуязвимый бандит, о поимке которого мечтает даже Интерпол. Убийство Шалого означает, что на всю группировку Бурого началась странная охота. Однако кто же руководит отстрелом его людей, Бурый не понимает и не находит ничего лучше, как затаиться.

Чтобы вытащить Бурого из норы, украинская милиция решается на совместную с Россией и Интерполом операцию. В банду Бурого решено внедрить опытного и отважного московского оперативника по фамилии Зверев. Цель внедрения: взять Бурого с поличным. Зверев — убежденный холостяк. Кажется, ничто не может изменить его взглядов на жизнь. Комизм ситуации заключается в том, что для достоверности легенды Зверев должен приехать в Одессу с женой и сыном.

На роль жены выбрана очаровательная Маша Яковлева, сотрудница архива МВД, вдова капитана милиции. Ее сын Павлик должен сыграть сына Зверева. Все понимают, что план рискованный, но в данной ситуации единственно возможный.

В Одессе все сразу пошло кувырком: поймать Бурого сразу не получилось. Зверев, Маша и Павлик вынуждены остаться в городе дольше запланированного, чтобы завершить операцию. Во время пребывания в Одессе с героями происходит ряд приключений, иногда смешных, а подчас и очень опасных. Зверев находится под двойным наблюдением: со стороны убийц, ведущих войну против Бурого, и местной милиции, двое представителей которой специально не посвящаются во все детали операции. По мере развития событий, главный герой вынужден не только выполнять свою прямую миссию по поимке преступника, но и защищать свою новую семью, которой грозит опасность.

В результате проведенной операции преступников ждет заслуженное наказание, но самое главное — герои пересматривают свои взгляды на жизнь и обретают счастье.


Качество видео: SatRip

Продолжительность: 00:46:09 серия
Формат: AVI
Видео: DivX, 704 х 368, 1499 kbps
Аудио: русский, оригинал, MP3 2.0, 128 kbps

Код:

F:\С underverse-3 Фильмы\Холостяк.2012. SATRip\Холостяк.01.avi
   General
      Complete name : F:\С underverse-3 Фильмы\Холостяк.2012. SATRip\Холостяк.01.avi
      Format : AVI
      Format/Info : Audio Video Interleave
      File size : 540 MiB
      Duration : 46mn 9s
      Overall bit rate : 1 637 Kbps
      Writing application : VirtualDubMod 1.5.10.2 (build 2540/release)
      Writing library : VirtualDub build 29808/release
   Video #0
      ID : 0
      Format : MPEG-4 Visual
      Format settings, BVOP : 1
      Format settings, QPel : No
      Format settings, GMC : No warppoints
      Format settings, Matrix : Default (H.263)
      Muxing mode : Packed bitstream
      Codec ID : DX50
      Codec ID/Hint : DivX 5
      Duration : 46mn 9s
      Bit rate : 1 499 Kbps
      Width : 704 pixels
      Height : 368 pixels
      Display aspect ratio : 1.85:1
      Frame rate : 25.000 fps
      Color space : YUV
      Chroma subsampling : 4:2:0
      Bit depth : 8 bits
      Scan type : Progressive
      Compression mode : Lossy
      Bits/(Pixel*Frame) : 0.222
      Stream size : 495 MiB (92%)
      Writing library : DivX 6.8.5 (UTC 2009-08-20)
   Audio #1
      ID : 1
      Format : MPEG Audio
      Format version : Version 1
      Format profile : Layer 3
      Mode : Joint stereo
      Codec ID : 55
      Codec ID/Hint : MP3
      Duration : 46mn 9s
      Bit rate mode : Constant
      Bit rate : 128 Kbps
      Channel(s) : 2 channels
      Sampling rate : 48.0 KHz
      Compression mode : Lossy
      Stream size : 42.3 MiB (8%)
      Alignment : Aligned on interleaves
      Interleave, duration : 40 ms (1.00 video frame)
      Interleave, preload duration : 504 ms
      Writing library : LAME3.90.3
Семпл: http://multi-up.com/862002

picpicpicpicpicpicpicpicpicpicpicpicpicpicpicpicpicpic
Для увеличения картинки щелкните мышкой по превью
Сериал который был выложен и зарегистрирован более двух месяцев назад буду раздавать с 23.00ч до 06.00ч утра ( вина в этом не моя, а пользователей которые не поддерживают раздачу)

Этот торрент недоступен для скачивания без регистрации, однако доступен по публичной magnet-ссылке (источники с публичных трекеров). Перед использованием ссылки прочтите, пожалуйста Пользовательское соглашение, а также как можно дольше оставайтесь на раздаче! Для того, чтобы скачать сам торрент-файл (который видит больше источников), а также для того, чтобы поблагодарить релизера, вам необходимо зарегистрироваться. Если регистрироваться лень - вы можете также попробовать скачать релиз по нашим партнерским ссылкам ниже.

[underverse.su].t27053.torrent
Трекер: Зарегистрирован   [ 04.05.2013 14:50 ]  

Статус: проверено (by Чертёнок at 04.05.2013 15:13)
Поблагодарили: 4 человека
Тип торрента: публичный - доступные источники с открытых трекеров: 
Размер: 2,15 GB (занимает 0,49 DVDR, для записи нужно 1 болванка DVDR/RW)
 
 

Яндекс.Метрика powered by Sphinx


В Н И М А Н И Е
Сайт не распространяет и не хранит электронные версии произведений, а лишь бесплатно и без коммерческой выгоды (не требуя взамен платы,
SMS и т.д.) предоставляет доступ к создаваемому пользователями каталогу ссылок на торрент-файлы, которые содержат только списки хеш-сумм.
Убедительная просьба с жалобами обращаться напрямую к пользователю, разместившему торрент файл.

Вверх