Loading...
Error

Голодный кролик атакует / Seeking Justice (Роджер Дональдсон / Roger Donaldson) [2011, боевик, триллер, драма, BDRip] Dub

Статистика раздачи
Размер:  2,18 GB   |    Зарегистрирован:  3 года 7 месяцев   |    Скачан:  5 раз

Полного источника не было: 2 месяца 11 дней

Сидов:  0  |  0 KB/s  ]   Личеров:  0  |  0 KB/s  ]

* - сиды/пиры с внешних источников

   
 
Автор Сообщение

Garnett Пол:Муж

03-Май-2013 16:22

Голодный кролик атакует / Seeking Justice
«Vengeance always has a price»
Страна: США
Жанр: боевик, триллер, драма
Год выпуска: 2011
Продолжительность: 01:45:01

Перевод: Профессиональный (дублированный) | Лицензия
Cубтитры: нет

Режиссер: Роджер Дональдсон / Roger Donaldson

В ролях: Николас Кейдж / Nicolas Cage (Will Gerard)
, Дженьюэри Джонс / January Jones (Laura Gerard), Гай Пирс / Guy Pearce (Simon), Дженнифер Карпентер, Хэролд Перрино / Harold Perrineau (Jimmy), Ксандер Беркли / Xander Berkeley (Lieutenant Durgan), Айрон Э. Синглтон / IronE Singleton (Scar), Майк Пневски / Mike Pniewski (Gibbs), Моника Акоста / Monica Acosta (Audubon Zoo Visitor), Джо Крест / Joe Chrest (Detective Rudeski), Дж.Д. Эвермор / J.D. Evermore (Man on Elevator), Дэвид Дженсен / David Jensen (Gas Attendant)

Описание:
Фильм сфокусируется на человеке, супруга которого становится жертвой жестокого преступления, и он внедряется в тайную организацию мстителей.

СЭМПЛ

Качество видео: BDRip(BDRemux)
Формат видео: AVI

Видео: 720x304 (2.37:1), 24 fps, XviD build 63 ~2120 kbps avg, 0.40 bit/pixel
Аудио:48 kHz, AC3 Dolby Digital, 3/2 (L,C,R,l,r) + LFE ch, ~384 kbps RUS
Аудио:48 kHz, AC3 Dolby Digital, 3/2 (L,C,R,l,r) + LFE ch, ~448 kbps ENG


General
Complete name : E:\Downloads\Golodniy krolik atakuet.chopper887.avi
Format : AVI
Format/Info : Audio Video Interleave
File size : 2.18 GiB
Duration : 1h 45mn
Overall bit rate : 2 966 Kbps
Movie name : Golodniy krolik atakuet.chopper887
Director : chopper887
Genre : Action
Writing application : VirtualDubMod 1.5.10.3 | www.virtualdub-fr.org || (build 2550/release)
Original source form/Name : Movie

Video
ID : 0
Format : MPEG-4 Visual
Format profile : Advanced Simple@L5
Format settings, BVOP : 2
Format settings, QPel : No
Format settings, GMC : No warppoints
Format settings, Matrix : Custom
Codec ID : XVID
Codec ID/Hint : XviD
Duration : 1h 45mn
Bit rate : 2 121 Kbps
Width : 720 pixels
Height : 304 pixels
Display aspect ratio : 2.35:1
Frame rate : 24.000 fps
Color space : YUV
Chroma subsampling : 4:2:0
Bit depth : 8 bits
Scan type : Progressive
Compression mode : Lossy
Bits/(Pixel*Frame) : 0.404
Stream size : 1.56 GiB (72%)
Writing library : XviD 63

Audio #1
ID : 1
Format : AC-3
Format/Info : Audio Coding 3
Mode extension : CM (complete main)
Codec ID : 2000
Duration : 1h 44mn
Bit rate mode : Constant
Bit rate : 384 Kbps
Channel(s) : 6 channels
Channel positions : Front: L C R, Side: L R, LFE
Sampling rate : 48.0 KHz
Bit depth : 16 bits
Compression mode : Lossy
Stream size : 288 MiB (13%)
Alignment : Split accross interleaves
Interleave, duration : 42 ms (1.00 video frame)
Interleave, preload duration : 500 ms

Audio #2
ID : 2
Format : AC-3
Format/Info : Audio Coding 3
Mode extension : CM (complete main)
Codec ID : 2000
Duration : 1h 45mn
Bit rate mode : Constant
Bit rate : 448 Kbps
Channel(s) : 6 channels
Channel positions : Front: L C R, Side: L R, LFE
Sampling rate : 48.0 KHz
Bit depth : 16 bits
Compression mode : Lossy
Stream size : 337 MiB (15%)
Alignment : Split accross interleaves
Interleave, duration : 42 ms (1.00 video frame)
Interleave, preload duration : 500 ms


picpicpic

Этот торрент недоступен для скачивания без регистрации, однако доступен по публичной magnet-ссылке (источники с публичных трекеров). Перед использованием ссылки прочтите, пожалуйста Пользовательское соглашение, а также как можно дольше оставайтесь на раздаче! Для того, чтобы скачать сам торрент-файл (который видит больше источников), а также для того, чтобы поблагодарить релизера, вам необходимо зарегистрироваться. Если регистрироваться лень - вы можете также попробовать скачать релиз по нашим партнерским ссылкам ниже.

[underverse.su].t27025.torrent
Трекер: Зарегистрирован   [ 03.05.2013 16:22 ]  

Статус: проверено (by Чертёнок at 03.05.2013 16:39)
Поблагодарили: пока никто не поблагодарил...
Тип торрента: публичный - доступные источники с открытых трекеров: 
Размер: 2,18 GB (занимает 1/2 DVDR, для записи нужно 1 болванка DVDR/RW)
 
 
Похожие темы
Форум Тема Автор Торрент Отв. Посл. сооб.
* Зарубежное кино [DVDRip, Low-Res HDRip, и т.д.] Голодный кролик атакует / Seeking Justice (Роджер Дональдсон / Roger Donaldson) [2011, США, боевик, триллер, BDRip-AVC] Dub + Sub (Rus,Eng) Garnett

0 | 458

03.05.2013 16:14

Зарубежное кино [DVDRip, Low-Res HDRip, и т.д.] Голодный кролик атакует / Seeking Justice (Роджер Дональдсон / Roger Donaldson) [2011, боевик, триллер, драма, HDRip] DUB Garnett
6 | 0

0 | 838

36

03.05.2013 16:17

Зарубежное кино [DVDRip, Low-Res HDRip, и т.д.] Голодный кролик атакует / Seeking Justice (Роджер Дональдсон / Roger Donaldson) [2011, боевик, триллер, драма, BDRip-AVC] Dub Garnett
52 | 0

0 | 459

6

03.05.2013 16:28

Зарубежное кино HQ Голодный кролик атакует / Seeking Justice (Роджер Дональдсон) [2011 г., боевик, триллер, драма, HDRip] (Rus,Eng) HQ Underverse HQ Underverse
0 | 0

0 | 565

9

16.02.2012 15:13


Яндекс.Метрика powered by Sphinx


В Н И М А Н И Е
Сайт не распространяет и не хранит электронные версии произведений, а лишь бесплатно и без коммерческой выгоды (не требуя взамен платы,
SMS и т.д.) предоставляет доступ к создаваемому пользователями каталогу ссылок на торрент-файлы, которые содержат только списки хеш-сумм.
Убедительная просьба с жалобами обращаться напрямую к пользователю, разместившему торрент файл.

Вверх