Loading...
Error

Исходный код / Source Code (Дункан Джонс / Duncan Jones) [2011, США, Франция, фантастика, боевик, триллер, драма, HDRip] Dub + Original + Subs

Статистика раздачи
Размер:  2,05 GB   |    Зарегистрирован:  3 года 7 месяцев   |    Скачан:  36 раз

Полного источника не было: 9 месяцев

Сидов:  0  |  0 KB/s  ]   Личеров:  0  |  0 KB/s  ]

* - сиды/пиры с внешних источников

   
 
Автор Сообщение

Garnett Пол:Муж

03-Май-2013 16:07

Исходный код / Source Code

Страна: США, Франция
Жанр: фантастика, боевик, триллер, драма
Год выпуска: 2011
Продолжительность: 01:33:12
Перевод: Профессиональный (дублированный)
+ Оригинальная звуковая дорожка (English)
Cубтитры: русские, английские (внешние .srt)
Режиссер: Дункан Джонс / Duncan Jones

В ролях: Джейк Джилленхол (Colter Stevens), Мишель Монахэн (Christina Warren), Вера Фармига (Colleen Goodwin), Джеффри Райт (Dr. Rutledge), Майкл Арден (Derek Frost), Кэс Анвар (Hazmi), Расселл Питерс (Max Denoff), Брент Скэгфорд (George Troxel), Крэйг Томас (Gold Watch Executive), Гордон Мастен (Conductor).

Описание: Капитан Колтер Стивенс оказывается в Чикаго в теле человека по имени Шон Фентресс внутри поезда, где он знакомится с женщиной по имени Кристина. Прежде чем он может понять, что происходит, чудовищный взрыв разрушает поезд.
Стивенс пробуждается внутри капсулы, где его через экран компьютера приветствует женщина в военной форме Коллин Гудвин и говорит Стивенсу, что он находится внутри «Исходного кода» — программы, которая позволяет вселяться в тело некоего человека в последние восемь минут его жизни. Ранее в тот же день бомба взорвалась и уничтожила поезд. Миссия Стивенса — найти бомбу и узнать, кто создал её, прежде чем ещё одна бомба, на этот раз нейтронная, взорвётся где-то в Чикаго, что может привести к гибели миллионов людей.
Автор рипа: Scarabey
Качество видео: HDRip (исходник: BDRip 720p)
Формат видео: AVI | Sample
Видео: 720x400 (1.80:1), 23.976 fps, XviD build 50 ~2306 kbps avg, 0.33 bit/pixel
Аудио 1: 48 kHz, AC3 Dolby Digital, 3/2 (L,C,R,l,r) + LFE ch, ~448.00 kbps avg (RUS)
Аудио 2: 48 kHz, AC3 Dolby Digital, 3/2 (L,C,R,l,r) + LFE ch, ~384.00 kbps avg (ENG)


picpicpic


Format : AVI
Format/Info : Audio Video Interleave
Format profile : OpenDML
File size : 2.05 GiB
Duration : 1h 33mn
Overall bit rate : 3 156 Kbps
Writing application : VirtualDubMod 1.5.10.2 (build 2540/release)
Writing library : VirtualDubMod build 2540/release

Video
ID : 0
Format : MPEG-4 Visual
Format profile : Advanced Simple@L5
Format settings, BVOP : 1
Format settings, QPel : No
Format settings, GMC : No warppoints
Format settings, Matrix : Custom
Codec ID : XVID
Codec ID/Hint : XviD
Duration : 1h 33mn
Bit rate : 2 306 Kbps
Width : 720 pixels
Height : 400 pixels
Display aspect ratio : 16:9
Frame rate : 23.976 fps
Color space : YUV
Chroma subsampling : 4:2:0
Bit depth : 8 bits
Scan type : Progressive
Compression mode : Lossy
Bits/(Pixel*Frame) : 0.334
Stream size : 1.50 GiB (73%)
Writing library : XviD 1.2.1 (UTC 2008-12-04)

Audio #1
ID : 1
Format : AC-3
Format/Info : Audio Coding 3
Mode extension : CM (complete main)
Format settings, Endianness : Big
Codec ID : 2000
Duration : 1h 33mn
Bit rate mode : Constant
Bit rate : 448 Kbps
Channel(s) : 6 channels
Channel positions : Front: L C R, Side: L R, LFE
Sampling rate : 48.0 KHz
Bit depth : 16 bits
Compression mode : Lossy
Stream size : 299 MiB (14%)
Alignment : Aligned on interleaves
Interleave, duration : 42 ms (1.00 video frame)
Interleave, preload duration : 512 ms

Audio #2
ID : 2
Format : AC-3
Format/Info : Audio Coding 3
Mode extension : CM (complete main)
Format settings, Endianness : Big
Codec ID : 2000
Duration : 1h 33mn
Bit rate mode : Constant
Bit rate : 384 Kbps
Channel(s) : 6 channels
Channel positions : Front: L C R, Side: L R, LFE
Sampling rate : 48.0 KHz
Bit depth : 16 bits
Compression mode : Lossy
Stream size : 256 MiB (12%)
Alignment : Aligned on interleaves
Interleave, duration : 42 ms (1.00 video frame)
Interleave, preload duration : 512 ms

Этот торрент недоступен для скачивания без регистрации, однако доступен по публичной magnet-ссылке (источники с публичных трекеров). Перед использованием ссылки прочтите, пожалуйста Пользовательское соглашение, а также как можно дольше оставайтесь на раздаче! Для того, чтобы скачать сам торрент-файл (который видит больше источников), а также для того, чтобы поблагодарить релизера, вам необходимо зарегистрироваться. Если регистрироваться лень - вы можете также попробовать скачать релиз по нашим партнерским ссылкам ниже.

[underverse.su].t27022.torrent
Трекер: Зарегистрирован   [ 03.05.2013 16:07 ]  

Статус: проверено (by Чертёнок at 03.05.2013 16:37)
Поблагодарили: 7 человек
Тип торрента: публичный - доступные источники с открытых трекеров: 
Размер: 2,05 GB (занимает 0,47 DVDR, для записи нужно 1 болванка DVDR/RW)
 
 
Похожие темы
Форум Тема Автор Торрент Отв. Посл. сооб.
Зарубежное кино [DVDRip, Low-Res HDRip, и т.д.] Исходный код / Source Code (Дункан Джонс) [2011 г., фантастика, боевик, триллер, драма, BDRip] JUUL7
0 | 0

0 | 1303

13

02.08.2011 05:08

Зарубежное кино [DVDRip, Low-Res HDRip, и т.д.] Исходный код / Source Code (Дункан Джонс) [2011 г., фантастика, боевик, триллер, HDRip-AVC] Dub + Original 90ytr90
1 | 0

0 | 466

11

24.12.2012 13:55

Зарубежное кино [DVDRip, Low-Res HDRip, и т.д.] Исходный код / Source Code (Дункан Джонс) [2011, фантастика, боевик, триллер, драма, HDRip] Dub Garnett
0 | 0

0 | 1180

15

19.01.2013 06:18

Зарубежное кино [DVDRip, Low-Res HDRip, и т.д.] Исходный код / Source Code (Дункан Джонс / Duncan Jones) [2011 г., фантастика, боевик, триллер, BDRip-AVC] Dub + Original + Sub (Rus, Eng) 90ytr90
4 | 0

0 | 1535

35

03.11.2013 13:23

Зарубежное кино [DVDRip, Low-Res HDRip, и т.д.] Исходный код / Source Code (Дункан Джонс) [2011 г., Фантастика, Боевик, Триллер, BDRip-AVC] Dub (RUS) + AVO (RUS) + 2-VO (RUS) + Dub (UKR) + MVO (UKR) + Original (ENG) + Subs (RUS, ENG) Ведьмочка
3 | 0

0 | 846

7

08.10.2014 13:26

Зарубежное кино HQ Исходный код / Source Code (Дункан Джонс) [2011 г., фантастика, боевик, триллер, драма, HDRip] (Rus, Eng) HQ Underverse HQ Underverse
0 | 0

0 | 929

28

22.05.2012 10:14

Зарубежное кино [HDDVDRip / BDRip / WEB-DL / HDTV 1080/720р] Исходный код / Source Code (Дункан Джонс) [2011 г., Фантастика, Боевик, Триллер, BDRip 1080p] Dub (RUS) + Original (ENG) + Subs (RUS, ENG) Ведьмочка
10 | 0

0 | 698

8

08.10.2014 13:00

Зарубежное кино [HDDVDRip / BDRip / WEB-DL / HDTV 1080/720р] Исходный код / Source Code (Дункан Джонс) [2011 г., Фантастика, Боевик, Триллер, BDRip 720p] Dub (RUS) + Subs (RUS, ENG) Ведьмочка
14 | 0

0 | 634

9

08.10.2014 13:07


Яндекс.Метрика powered by Sphinx


В Н И М А Н И Е
Сайт не распространяет и не хранит электронные версии произведений, а лишь бесплатно и без коммерческой выгоды (не требуя взамен платы,
SMS и т.д.) предоставляет доступ к создаваемому пользователями каталогу ссылок на торрент-файлы, которые содержат только списки хеш-сумм.
Убедительная просьба с жалобами обращаться напрямую к пользователю, разместившему торрент файл.

Вверх