Loading...
Error

Затерянный остров / L'ile / L'ile: les naufrages de la terre perdue (Оливье Буалло / Olivier Boillot) [2011, Франция, Реюньон, фэнтези, драма, детектив, приключения, HDRip] MVO (СТС) + Original Fre

Статистика раздачи
Размер:  1,45 GB   |    Зарегистрирован:  3 года 7 месяцев   |    Скачан:  102 раза

Полного источника не было: 4 месяца 24 дня

Сидов:  0  |  0 KB/s  ]   Личеров:  0  |  0 KB/s  ]

* - сиды/пиры с внешних источников

   
 
Автор Сообщение

Garnett Пол:Муж

03-Май-2013 15:59

Затерянный остров / L'ile / L'ile: les naufrages de la terre perdue

Страна: Франция, Реюньон
Жанр: фэнтези, драма, детектив, приключения
Год выпуска: 2011
Продолжительность: 01:30:38

Перевод: Профессиональный (многоголосый закадровый) СТС
Cубтитры: нет
Оригинальная аудиодорожка: французский

Режиссер: Оливье Буалло / Olivier Boillot

В ролях: Мишель Беатри, Сирьель Дебрей, Поль Декомб, Каддор Доргам, Жереми Дюпло младший

Описание: 1942 год. Военный самолёт терпит крушение и падает в Атлантический океан. Выжившие члены экипажа спасаются на шлюпке, которую прибивает к берегу. Лётчики оказываются на острове. Спустя некоторое время они находят заброшенный туннель и через него попадают в совершенно другой мир…

Сэмпл: http://multi-up.com/861055

Качество видео: HDRip
Формат видео: AVI

Видео: MPEG4, XviD, 720x400 (16/9), 25.000 fps, 1 644 Kbps (0.228 bit/pixel)
Аудио 1: AC-3, 48.0 KHz, 2 ch, 192 Kbps, CBR - русский
Аудио 2: AC-3, 48.0 KHz, 6 ch, 448 Kbps, CBR - французский


Общее
Полное имя : K:\Затерянный остров.avi
Формат : AVI
Формат/Информация : Audio Video Interleave
Размер файла : 1,46 Гбайт
Продолжительность : 1 ч. 30 м.
Общий поток : 2298 Кбит/сек
Название фильма : Затерянный остров / L'ile / L'ile: les naufrages de la terre perdue (2011)
Режиссёр : miha2154
Программа кодирования : VirtualDubMod 1.5.10.2 (build 2540/release)
Библиотека кодирования : VirtualDubMod build 2540/release
Правообладатель : специально для BitTorrent трекер *другой трекер* (ex *другой трекер*)

Видео
Идентификатор : 0
Формат : MPEG-4 Visual
Профиль формата : Advanced Simple@L5
Параметр BVOP формата : 2
Параметр QPel формата : Нет
Параметр GMC формата : Без точки перехода
Параметр матрицы формата : Default (MPEG)
Идентификатор кодека : XVID
Идентификатор кодека/Подсказка : XviD
Продолжительность : 1 ч. 30 м.
Битрейт : 1644 Кбит/сек
Ширина : 720 пикселей
Высота : 400 пикселей
Соотношение сторон : 16:9
Частота кадров : 25,000 кадров/сек
Цветовое пространство : YUV
Субдискретизация насыщенности : 4:2:0
Битовая глубина : 8 бит
Тип развёртки : Прогрессивная
Метод сжатия : С потерями
Бит/(Пиксели*Кадры) : 0.228
Размер потока : 1,04 Гбайт (72%)
Библиотека кодирования : XviD 1.1.0 (UTC 2005-11-22)

Аудио #1
Идентификатор : 1
Формат : AC-3
Формат/Информация : Audio Coding 3
Расширение режима : CM (complete main)
Параметр Endianness формата : Big
Идентификатор кодека : 2000
Продолжительность : 1 ч. 30 м.
Вид битрейта : Постоянный
Битрейт : 192 Кбит/сек
Каналы : 2 канала
Расположение каналов : Front: L R
Частота : 48,0 КГц
Битовая глубина : 16 бит
Метод сжатия : С потерями
Размер потока : 124 Мбайт (8%)
Выравнивание : Разделение по промежуткам
Продолжительность промежутка : 40 мс. (1,00 видеокадр)
Время предзагрузки промежутка : 500 мс.
Заголовок : Профессиональный (многоголосый, закадровый) СТС

Аудио #2
Идентификатор : 2
Формат : AC-3
Формат/Информация : Audio Coding 3
Расширение режима : CM (complete main)
Параметр Endianness формата : Big
Идентификатор кодека : 2000
Продолжительность : 1 ч. 30 м.
Вид битрейта : Постоянный
Битрейт : 448 Кбит/сек
Каналы : 6 каналов
Расположение каналов : Front: L C R, Side: L R, LFE
Частота : 48,0 КГц
Битовая глубина : 16 бит
Метод сжатия : С потерями
Размер потока : 290 Мбайт (19%)
Выравнивание : Разделение по промежуткам
Продолжительность промежутка : 40 мс. (1,00 видеокадр)
Время предзагрузки промежутка : 500 мс.
Заголовок : Французский
picpicpic

Этот торрент недоступен для скачивания без регистрации, однако доступен по публичной magnet-ссылке (источники с публичных трекеров). Перед использованием ссылки прочтите, пожалуйста Пользовательское соглашение, а также как можно дольше оставайтесь на раздаче! Для того, чтобы скачать сам торрент-файл (который видит больше источников), а также для того, чтобы поблагодарить релизера, вам необходимо зарегистрироваться. Если регистрироваться лень - вы можете также попробовать скачать релиз по нашим партнерским ссылкам ниже.

[underverse.su].t27020.torrent
Трекер: Зарегистрирован   [ 03.05.2013 15:59 ]  

Статус: проверено (by Печаль'ka at 03.05.2013 16:05)
Поблагодарили: 6 человек
Тип торрента: публичный - доступные источники с открытых трекеров: 
Размер: 1,45 GB (занимает 1/3 DVDR, для записи нужно 1 болванка DVDR/RW)
 
 
Похожие темы
Форум Тема Автор Торрент Отв. Посл. сооб.
Зарубежное кино [DVDRip, Low-Res HDRip, и т.д.] Затерянный мир / Land of the Lost (Брэд Силберлинг / Brad Silberling) [2009 г., фантастика, комедия, приключения, HDRip] Dub 90ytr90
30 | 0

0 | 497

4

24.02.2015 17:56

Зарубежное кино [DVDRip, Low-Res HDRip, и т.д.] Затерянный мир / Land of the Lost (Брэд Силберлинг / Brad Silberling) [2009 г., фантастика, комедия, приключения, BDRip-AVC] Dub (Rus) + MVO (Ukr) + Original (Eng) + Subs 90ytr90
2 | 0

0 | 576

9

24.02.2015 18:04

Зарубежное кино [DVDRip, Low-Res HDRip, и т.д.] Затерянный мир / Land of the Lost (Брэд Силберлинг) [2009 г., Фантастика, комедия, приключения, HDRip-AVC] Dub Dryn9
18 | 0

0 | 794

4

30.04.2016 10:43

Зарубежное кино [DVD / HDDVD / BD / Remux] Затерянный мир / Land of the Lost (Брэд Силберлинг) [2009 г., фантастика, комедия, приключения, DVD-9] Bratok
0 | 0

3 | 2549

10

11.07.2009 22:53

Архив Затерянный мир / Land of the Lost (Брэд Силберлинг) [2009 г., фантастика, комедия, приключения, DVDRip] Win32.DK
0 | 0

12 | 1527

86

16.06.2011 08:08

Архив Затерянный мир / Land of the Lost (Брэд Силберлинг) [2009 г., фантастика, комедия, приключения, BDRip] GUree
0 | 0

2 | 1063

0

05.11.2011 14:44

icarchelny 

07-Май-2013 04:18

спасибо !!!

Яндекс.Метрика powered by Sphinx


В Н И М А Н И Е
Сайт не распространяет и не хранит электронные версии произведений, а лишь бесплатно и без коммерческой выгоды (не требуя взамен платы,
SMS и т.д.) предоставляет доступ к создаваемому пользователями каталогу ссылок на торрент-файлы, которые содержат только списки хеш-сумм.
Убедительная просьба с жалобами обращаться напрямую к пользователю, разместившему торрент файл.

Вверх