Loading...
Error

Тайная война. Моссад [2010, документальный, TVRip]

Статистика раздачи
Размер:  455 MB   |    Зарегистрирован:  3 года 7 месяцев   |    Скачан:  12 раз
Сидов:  1  |  0 KB/s  ]   Личеров:  0  |  0 KB/s  ]

* - сиды/пиры с внешних источников

   
 
Автор Сообщение

матроскин Пол:Муж

03-Май-2013 13:13

Тайная война. Моссад


Год выпуска: 2010
Жанр: документальный
Страна: Россия
Выпущено: Просвещение ТВ
Сюжет фильма:
Сфера деятельности Моссада включает: тайный сбор информации за рубежом,предотвращение террористической деятельности против израильских и еврейских объектов за рубежом,развитие и поддеожка особых секретных связей,политических и иных за рубежом
Качество видео: TVRip

Продолжительность: 00:38:54
Формат: avi
Видео: XviD, 704x528, 1497 kbps
Аудио: русский, оригинал, MP3 2.0, 128 kbps

Код:

General
Complete name                    : C:\Users\Security\Videos\Мамонов\3-Tajnaja.vojna.Mossad.2010..avi
Format                           : AVI
Format/Info                      : Audio Video Interleave
File size                        : 455 MiB
Duration                         : 38mn 54s
Overall bit rate                 : 1 635 Kbps
Writing library                  : VirtualDub build 32842/release

Video
ID                               : 0
Format                           : MPEG-4 Visual
Format profile                   : Streaming Video@L1
Format settings, BVOP            : Yes
Format settings, QPel            : No
Format settings, GMC             : No warppoints
Format settings, Matrix          : Default (H.263)
Muxing mode                      : Packed bitstream
Codec ID                         : XVID
Codec ID/Hint                    : XviD
Duration                         : 38mn 54s
Bit rate                         : 1 498 Kbps
Width                            : 704 pixels
Height                           : 528 pixels
Display aspect ratio             : 4/3
Frame rate                       : 25.000 fps
Resolution                       : 24 bits
Colorimetry                      : 4:2:0
Scan type                        : Progressive
Bits/(Pixel*Frame)               : 0.161
Stream size                      : 417 MiB (92%)
Writing library                  : XviD 1.2.1 (UTC 2008-12-04)

Audio
ID                               : 1
Format                           : MPEG Audio
Format version                   : Version 1
Format profile                   : Layer 3
Codec ID                         : 55
Codec ID/Hint                    : MP3
Duration                         : 38mn 54s
Bit rate mode                    : Constant
Bit rate                         : 128 Kbps
Channel(s)                       : 2 channels
Sampling rate                    : 48.0 KHz
Resolution                       : 16 bits
Stream size                      : 35.6 MiB (8%)
Alignment                        : Split accross interleaves
Interleave, duration             : 40 ms (1.00 video frame)
Interleave, preload duration     : 500 ms
Writing library                  : LAME3.98.2

picpicpicpicpic
Для увеличения картинки щелкните мышкой по превью

Этот торрент недоступен для скачивания без регистрации, однако доступен по публичной magnet-ссылке (источники с публичных трекеров). Перед использованием ссылки прочтите, пожалуйста Пользовательское соглашение, а также как можно дольше оставайтесь на раздаче! Для того, чтобы скачать сам торрент-файл (который видит больше источников), а также для того, чтобы поблагодарить релизера, вам необходимо зарегистрироваться. Если регистрироваться лень - вы можете также попробовать скачать релиз по нашим партнерским ссылкам ниже.

[underverse.su].t27016.torrent
Трекер: Зарегистрирован   [ 03.05.2013 13:13 ]  

Статус: проверено (by Чертёнок at 03.05.2013 14:23)
Поблагодарили: пока никто не поблагодарил...
Тип торрента: публичный - доступные источники с открытых трекеров: 
Размер: 455 MB (занимает 0,1 DVDR, для записи нужно 1 болванка DVDR/RW)
 
 
Похожие темы
Форум Тема Автор Торрент Отв. Посл. сооб.
Научно-популярные фильмы Тайная война в Тибете [2007, документальный, TVRip] матроскин
1 | 0

1 | 520

10

03.05.2013 12:45

Научно-популярные фильмы Тайная война. Япония [2010, документальный, TVRip] матроскин
1 | 1

1 | 521

8

03.05.2013 12:56

Научно-популярные фильмы Тайная война. Дзержинский [2010, документальный, TVRip] матроскин
1 | 0

11 | 852

14

01.07.2013 10:14

Военные хроники Тайная война: Китай [2010 г., военный, документальный, TVRip] матроскин
1 | 0

1 | 1158

11

09.04.2013 07:08

Другие фильмы Тайная война Атлантиды [2015 г., Фильм-поэма, DVDRip] gorovs
1 | 1

0 | 335

8

23.02.2016 08:09

матроскин Пол:Муж

03-Май-2013 13:15

Качайте и смотрите интересное документальное кино

Яндекс.Метрика powered by Sphinx


В Н И М А Н И Е
Сайт не распространяет и не хранит электронные версии произведений, а лишь бесплатно и без коммерческой выгоды (не требуя взамен платы,
SMS и т.д.) предоставляет доступ к создаваемому пользователями каталогу ссылок на торрент-файлы, которые содержат только списки хеш-сумм.
Убедительная просьба с жалобами обращаться напрямую к пользователю, разместившему торрент файл.

Вверх