Loading...
Error

Тайная война в Тибете [2007, документальный, TVRip]

Статистика раздачи
Размер:  454 MB   |    Зарегистрирован:  3 года 7 месяцев   |    Скачан:  10 раз
Сидов:  1  |  0 KB/s  ]   Личеров:  0  |  0 KB/s  ]

* - сиды/пиры с внешних источников

   
 
Автор Сообщение

матроскин Пол:Муж

03-Май-2013 12:43

Тайная война в Тибете.


Год выпуска: 2007
Жанр: документальный
Страна: Россия
Выпущено: Телекомпания РЕН ТВ
Сюжет фильма:
1945 год. После штурма Рейхстага советские солдаты обнаруживают на развалинах трупы солдат азиатской внешности. Военная разведка теряется в догадках... Разгадка скрывалась в строго засекреченных архивах НКВД. Таинственные азиаты были выходцами из Тибета – возможно, последними свидетелями тайной войны Гитлера и Сталина за обладание абсолютным знанием, дающим власть над всем миром. Вместе с авторами фильма мы пройдем по следам секретной экспедиции НКВД к границам Тибета, попробуем найти последние уцелевшие свидетельства охоты специального подразделения за Мастером тайных знаний, загадочным существом, которое, по преданиям, обитает в горах Тибета. Съемки фильма проходили в Германии, Австрии, Монголии, Тибете, Непале. В поисках следов секретных экспедиций впервые профессиональная российская съемочная группа побывала в Бутане. И впервые за многие десятилетия эти следы были обнаружены. Историческое расследование привело к неожиданным результатам. Тайная война в Тибете за обладание абсолютным разумом, возможно, не закончилась и не была похоронена на архивных полках спецслужб. Поиски Мастера тайных знаний продолжаются и сегодня…
Качество видео: TVRip

Продолжительность: 00:42:38
Формат: avi
Видео: XviD, 688x416, 1349 kbps
Аудио: русский, оригинал, MP3 2.0, 128 kbps

Код:

General
Complete name                    : C:\Users\Security\Videos\Мамонов\Sicret War V Tibete.avi
Format                           : AVI
Format/Info                      : Audio Video Interleave
File size                        : 454 MiB
Duration                         : 42mn 38s
Overall bit rate                 : 1 488 Kbps

Video
ID                               : 0
Format                           : MPEG-4 Visual
Format profile                   : Streaming Video@L1
Format settings, BVOP            : Yes
Format settings, QPel            : No
Format settings, GMC             : No warppoints
Format settings, Matrix          : Default (H.263)
Codec ID                         : XVID
Codec ID/Hint                    : XviD
Duration                         : 42mn 38s
Bit rate                         : 1 350 Kbps
Width                            : 688 pixels
Height                           : 416 pixels
Display aspect ratio             : 1.654
Frame rate                       : 25.000 fps
Resolution                       : 24 bits
Colorimetry                      : 4:2:0
Scan type                        : Progressive
Bits/(Pixel*Frame)               : 0.189
Stream size                      : 412 MiB (91%)
Writing library                  : XviD 1.2.1 (UTC 2008-12-04)

Audio
ID                               : 1
Format                           : MPEG Audio
Format version                   : Version 1
Format profile                   : Layer 3
Codec ID                         : 55
Codec ID/Hint                    : MP3
Duration                         : 42mn 38s
Bit rate mode                    : Constant
Bit rate                         : 128 Kbps
Channel(s)                       : 2 channels
Sampling rate                    : 48.0 KHz
Resolution                       : 16 bits
Stream size                      : 39.0 MiB (9%)
Alignment                        : Aligned on interleaves
Interleave, duration             : 40 ms (1.00 video frame)

picpicpicpicpic
Для увеличения картинки щелкните мышкой по превью

Этот торрент недоступен для скачивания без регистрации, однако доступен по публичной magnet-ссылке (источники с публичных трекеров). Перед использованием ссылки прочтите, пожалуйста Пользовательское соглашение, а также как можно дольше оставайтесь на раздаче! Для того, чтобы скачать сам торрент-файл (который видит больше источников), а также для того, чтобы поблагодарить релизера, вам необходимо зарегистрироваться. Если регистрироваться лень - вы можете также попробовать скачать релиз по нашим партнерским ссылкам ниже.

[underverse.su].t27014.torrent
Трекер: Зарегистрирован   [ 03.05.2013 12:43 ]  

Статус: проверено (by Чертёнок at 03.05.2013 14:23)
Поблагодарили: 1 человек
Тип торрента: публичный - доступные источники с открытых трекеров: 
Размер: 454 MB (занимает 0,1 DVDR, для записи нужно 1 болванка DVDR/RW)
 
 
Похожие темы
Форум Тема Автор Торрент Отв. Посл. сооб.
Научно-популярные фильмы Тайная война. Япония [2010, документальный, TVRip] матроскин
1 | 1

1 | 517

8

03.05.2013 12:56

Научно-популярные фильмы Тайная война. Моссад [2010, документальный, TVRip] матроскин
1 | 0

1 | 513

12

03.05.2013 13:15

Научно-популярные фильмы Тайная война. Дзержинский [2010, документальный, TVRip] матроскин
1 | 0

11 | 851

14

01.07.2013 10:14

Военные хроники Тайная война: Китай [2010 г., военный, документальный, TVRip] матроскин
1 | 0

1 | 1156

11

09.04.2013 07:08

Другие фильмы Тайная война Атлантиды [2015 г., Фильм-поэма, DVDRip] gorovs
1 | 0

0 | 333

8

23.02.2016 08:09

матроскин Пол:Муж

03-Май-2013 12:45


Яндекс.Метрика powered by Sphinx


В Н И М А Н И Е
Сайт не распространяет и не хранит электронные версии произведений, а лишь бесплатно и без коммерческой выгоды (не требуя взамен платы,
SMS и т.д.) предоставляет доступ к создаваемому пользователями каталогу ссылок на торрент-файлы, которые содержат только списки хеш-сумм.
Убедительная просьба с жалобами обращаться напрямую к пользователю, разместившему торрент файл.

Вверх