Loading...
Error

Правда об НЛО. Архивы НЛО: Китай / UFO [2008, документальный, TVRip]

Статистика раздачи
Размер:  389 MB   |    Зарегистрирован:  3 года 7 месяцев   |    Скачан:  4 раза
Сидов:  1  |  0 KB/s  ]   Личеров:  0  |  0 KB/s  ]

* - сиды/пиры с внешних источников

   
 
Автор Сообщение

матроскин Пол:Муж

03-Май-2013 12:17

Правда об НЛО. Архивы НЛО: Китай / UFO


Год выпуска: 2008
Жанр: документальный
Страна: США, AGE Television Networks
Режиссер: Ли Шнайдер, Шон Мэлли
Участвуют: Уильям Полетич, Томас Ризо
Сюжет фильма:
Уже более 50 лет циркулируют слухи о загадочных каменных дисках, найденных в центральной части Китая в горах Байян-Кара-Ула. И столько же лет звучат голоса скептиков, отрицающих само существование этих странных предметов. Однако последние исследования в прежде запретных зонах Китая немецкого археолога Гартвина Хаусдорфа заставляют вновь вернуться к этой проблеме.
Качество видео: TVRip

Продолжительность: 00:45:03
Формат: avi
Видео: XviD, 700x560, 1133 kbps
Аудио: русский,Профессиональный (двухголосый), MP1 1, 64 kbps

Код:

General
Complete name                    : C:\Users\Security\Videos\Мамонов\NLO_Kitaj.avi
Format                           : AVI
Format/Info                      : Audio Video Interleave
File size                        : 389 MiB
Duration                         : 45mn 3s
Overall bit rate                 : 1 207 Kbps
Writing application              : VirtualDubModRus 1.5.10.2 (build 2540/release)
Writing library                  : VirtualDubMod build 2540/release

Video
ID                               : 0
Format                           : MPEG-4 Visual
Format profile                   : Streaming Video@L1
Format settings, BVOP            : Yes
Format settings, QPel            : No
Format settings, GMC             : No warppoints
Format settings, Matrix          : Default (H.263)
Muxing mode                      : Packed bitstream
Codec ID                         : XVID
Codec ID/Hint                    : XviD
Duration                         : 45mn 3s
Bit rate                         : 1 133 Kbps
Width                            : 700 pixels
Height                           : 560 pixels
Display aspect ratio             : 5/4
Frame rate                       : 25.000 fps
Resolution                       : 24 bits
Colorimetry                      : 4:2:0
Scan type                        : Progressive
Bits/(Pixel*Frame)               : 0.116
Stream size                      : 365 MiB (94%)
Writing library                  : XviD 1.2.0SMP (UTC 2006-01-08)

Audio
ID                               : 1
Format                           : MPEG Audio
Format version                   : Version 1
Format profile                   : Layer 2
Codec ID                         : 50
Codec ID/Hint                    : MP1
Duration                         : 45mn 3s
Bit rate mode                    : Constant
Bit rate                         : 64.0 Kbps
Channel(s)                       : 1 channel
Sampling rate                    : 44.1 KHz
Resolution                       : 16 bits
Stream size                      : 20.6 MiB (5%)
Alignment                        : Split accross interleaves
Interleave, duration             : 40 ms (1.00 video frame)
Interleave, preload duration     : 500 ms

picpicpicpic
Для увеличения картинки щелкните мышкой по превью

Этот торрент недоступен для скачивания без регистрации, однако доступен по публичной magnet-ссылке (источники с публичных трекеров). Перед использованием ссылки прочтите, пожалуйста Пользовательское соглашение, а также как можно дольше оставайтесь на раздаче! Для того, чтобы скачать сам торрент-файл (который видит больше источников), а также для того, чтобы поблагодарить релизера, вам необходимо зарегистрироваться. Если регистрироваться лень - вы можете также попробовать скачать релиз по нашим партнерским ссылкам ниже.

[underverse.su].t27011.torrent
Трекер: Зарегистрирован   [ 03.05.2013 12:17 ]  

Статус: проверено (by Чертёнок at 03.05.2013 12:21)
Поблагодарили: 1 человек
Тип торрента: публичный - доступные источники с открытых трекеров: 
Размер: 389 MB (занимает 0,09 DVDR, для записи нужно 1 болванка DVDR/RW)
 
 
Похожие темы
Форум Тема Автор Торрент Отв. Посл. сооб.
Научно-популярные фильмы Правда об алкоголе: Общее дело-Алкоголь и преступления. Тест на совместимость [2010 г., Документальный, DVDRip] trezvocnua
0 | 0

1 | 1174

10

31.08.2011 08:39

Научно-популярные фильмы Правда об алкоголе: Общее дело - День Рождения [2010 г., Документальный, DVDRip] trezvocnua
0 | 0

1 | 1253

8

31.08.2011 08:36

Научно-популярные фильмы Правда об алкоголе: Общее дело - Большая алкогольная болезнь[2010 г., Документальный, DVDRip] trezvocnua
0 | 0

1 | 1411

15

31.08.2011 08:30

Научно-популярные фильмы Правда об алкоголе: Общее дело - Выход есть [2010 г., Документальный, DVDRip] trezvocnua
0 | 0

1 | 1786

15

31.08.2011 08:34

Научно-популярные фильмы Правда об НЛО. След из прошлого / UFO Files (Ли Шнайдер, Шон Мэлли) [2008, документальный, TVRip] матроскин
1 | 0

1 | 708

6

03.05.2013 11:46

Научно-популярные фильмы Правда об НЛО. Мексика / UFO [2008, документальный, TVRip] матроскин
1 | 1

1 | 497

5

03.05.2013 12:27

Научно-популярные фильмы Правда об НЛО. Архивы НЛО - Канада / UFO [2008, документальный, SATRip] матроскин
1 | 0

1 | 1048

7

06.05.2013 05:47

Научно-популярные фильмы Правда об НЛО. День после Розвелла / UFO Files. Roswell [2008, документальный, SATRip] матроскин
1 | 0

1 | 1098

7

06.05.2013 05:59

Научно-популярные фильмы Правда об НЛО. Белый дом / UFO Files [2009, документальный, SATRip] матроскин
1 | 0

1 | 883

5

06.05.2013 06:13

Научно-популярные фильмы Правда об НЛО. Бразильский Розвелл / UFO Files: Brazil's Roswell [2008, документальный, SATRip] матроскин
1 | 0

1 | 994

8

06.05.2013 06:38

матроскин Пол:Муж

03-Май-2013 12:19

Качайте и смотрите интересное документальное кино

Яндекс.Метрика powered by Sphinx


В Н И М А Н И Е
Сайт не распространяет и не хранит электронные версии произведений, а лишь бесплатно и без коммерческой выгоды (не требуя взамен платы,
SMS и т.д.) предоставляет доступ к создаваемому пользователями каталогу ссылок на торрент-файлы, которые содержат только списки хеш-сумм.
Убедительная просьба с жалобами обращаться напрямую к пользователю, разместившему торрент файл.

Вверх