Loading...
Error

НЛО: Секретные файлы / Dan Aykroyd Unplugged on UFOs (Дэвид Середа) [2005, документальный, TVRip]

Статистика раздачи
Размер:  526 MB   |    Зарегистрирован:  3 года 7 месяцев   |    Скачан:  4 раза

Полного источника не было: 1 день 23 часа

Сидов:  0  |  0 KB/s  ]   Личеров:  0  |  0 KB/s  ]

* - сиды/пиры с внешних источников

   
 
Автор Сообщение

матроскин Пол:Муж

03-Май-2013 12:02

НЛО: Секретные файлы / Dan Aykroyd Unplugged on UFOs


Год выпуска: 2005
Жанр: документальный
Страна: США
Режиссер: Дэвид Середа
Участвуют: Дэн Эйкройд, Дэвид Середа, Гордон Купер, Рональд Рейган, Кен Сторч, Джон Хатчинсон, Стефен Бассетт
Сюжет фильма:
Актер, писатель, режиссер и продюсер Дэн Эйкройд очень увлечен паранормальными явлениями. Дэн полушутя рассказывает нам о тех неизведанных вещах, которые нас окружают. Данный фильм от начала и до конца посвящен неопознанным летающим объектам. Дэн общается на тему НЛО с людьми, непосредственно связанными с изучением этих явлений. Это правительственные организации, NASA, вооруженные силы государства и т.д.
Качество видео: TVRip

Продолжительность: 01:19:44
Формат: avi
Видео: XviD, 704x544, 783 kbps
Аудио: русский, Профессиональный (двухголосый), MP3 2.0, 128 kbps

Код:

General
Complete name                    : C:\Users\Security\Videos\Мамонов\NLO_Sekretnye_fajly.avi
Format                           : AVI
Format/Info                      : Audio Video Interleave
File size                        : 526 MiB
Duration                         : 1h 19mn
Overall bit rate                 : 921 Kbps
Writing library                  : VirtualDub-MPEG2 build 24600/release

Video
ID                               : 0
Format                           : MPEG-4 Visual
Format profile                   : Streaming Video@L1
Format settings, BVOP            : Yes
Format settings, QPel            : No
Format settings, GMC             : No warppoints
Format settings, Matrix          : Default (H.263)
Muxing mode                      : Packed bitstream
Codec ID                         : XVID
Codec ID/Hint                    : XviD
Duration                         : 1h 19mn
Bit rate                         : 784 Kbps
Width                            : 704 pixels
Height                           : 544 pixels
Display aspect ratio             : 1.294
Frame rate                       : 25.000 fps
Resolution                       : 24 bits
Colorimetry                      : 4:2:0
Scan type                        : Progressive
Bits/(Pixel*Frame)               : 0.082
Stream size                      : 447 MiB (85%)
Writing library                  : XviD 1.1.2 (UTC 2006-11-01)

Audio
ID                               : 1
Format                           : MPEG Audio
Format version                   : Version 1
Format profile                   : Layer 3
Codec ID                         : 55
Codec ID/Hint                    : MP3
Duration                         : 1h 19mn
Bit rate mode                    : Constant
Bit rate                         : 128 Kbps
Channel(s)                       : 2 channels
Sampling rate                    : 48.0 KHz
Resolution                       : 16 bits
Stream size                      : 73.0 MiB (14%)
Alignment                        : Split accross interleaves
Interleave, duration             : 40 ms (1.00 video frame)
Interleave, preload duration     : 500 ms

picpicpicpicpic
Для увеличения картинки щелкните мышкой по превью

Этот торрент недоступен для скачивания без регистрации, однако доступен по публичной magnet-ссылке (источники с публичных трекеров). Перед использованием ссылки прочтите, пожалуйста Пользовательское соглашение, а также как можно дольше оставайтесь на раздаче! Для того, чтобы скачать сам торрент-файл (который видит больше источников), а также для того, чтобы поблагодарить релизера, вам необходимо зарегистрироваться. Если регистрироваться лень - вы можете также попробовать скачать релиз по нашим партнерским ссылкам ниже.

[underverse.su].t27010.torrent
Трекер: Зарегистрирован   [ 03.05.2013 12:02 ]  

Статус: проверено (by Чертёнок at 03.05.2013 12:07)
Поблагодарили: пока никто не поблагодарил...
Тип торрента: публичный - доступные источники с открытых трекеров: 
Размер: 526 MB (занимает 0,12 DVDR, для записи нужно 1 болванка DVDR/RW)
 
 

матроскин Пол:Муж

03-Май-2013 12:07

Качайте и смотрите интересное документальное кино

Яндекс.Метрика powered by Sphinx


В Н И М А Н И Е
Сайт не распространяет и не хранит электронные версии произведений, а лишь бесплатно и без коммерческой выгоды (не требуя взамен платы,
SMS и т.д.) предоставляет доступ к создаваемому пользователями каталогу ссылок на торрент-файлы, которые содержат только списки хеш-сумм.
Убедительная просьба с жалобами обращаться напрямую к пользователю, разместившему торрент файл.

Вверх