Loading...
Error

600 Секунд (10 выпусков ) (Александ Невзоров) [1989-1993, телепередача, TVRip]

Статистика раздачи
Размер:  2,16 GB   |    Зарегистрирован:  3 года 7 месяцев   |    Скачан:  3 раза

Полного источника не было: 4 часа

Сидов:  0  |  0 KB/s  ]   Личеров:  0  |  0 KB/s  ]

* - сиды/пиры с внешних источников

   
 
Автор Сообщение

матроскин Пол:Муж

03-Май-2013 10:12

600 Секунд


Год выпуска: 1989-1993
Жанр: телепередача
Страна: СССР-Россия
Режиссер: Александ Невзоров
Сюжет фильма:
«600 секунд» — телевизионная передача, выходившая в эфир в 1987—1993 гг. на петербургском телеканале. За 10 минут ведущий — чаще всего Александр Невзоров — успевал рассказать об основных событиях дня в Лениграде/Санкт-Петербурге и дать видеоряд и комментарий. Передача имела высокий зрительский рейтинг и стала одним из символов Перестройки. Часто называется сокращённо «Секунды».

Передача впервые вышла в эфир 23 декабря 1987 года. В первые годы существования передача притягивала к себе внимание в основном своей новизной и динамичностью, которая была подчёркнута счётчиком секунд в углу экрана. Массовая публика узнала о передаче задолго до сюжета программы «Взгляд», подготовленного осенью 1989 года. Передача использовала провозглашённую властями политику Гласности и показывала сюжеты о коррупции чиновников и критиковала членов Ленсовета, противостоящих демократическим начинаниям Анатолия Собчака; позже, когда Собчак стал мэром Ленинграда, она критиковала и его самого. В передаче присутствовал и юмор: например, первого апреля 1990 года было показано интервью с инопланетянином, задержанным милицией.
Качество видео: TVRip

Продолжительность: 10 х 00:09:54
Формат: avi
Видео: DivX 4, 640x480, 1089 kbps
Аудио: русский, оригинал, MP3 2.0, 256 kbps

Код:

General
Complete name                    : C:\Users\Security\Videos\Мамонов\600Second0_IPTVRip.avi
Format                           : AVI
Format/Info                      : Audio Video Interleave
Format profile                   : OpenDML
File size                        : 2.16 GiB
Duration                         : 4h 18mn
Overall bit rate                 : 1 196 Kbps
Writing application              : Lavf52.93.0

Video
ID                               : 0
Format                           : MPEG-4 Visual
Format profile                   : Simple@L1
Format settings, BVOP            : No
Format settings, QPel            : No
Format settings, GMC             : No warppoints
Format settings, Matrix          : Default (H.263)
Codec ID                         : DIVX
Codec ID/Info                    : Project Mayo
Codec ID/Hint                    : DivX 4
Duration                         : 4h 18mn
Bit rate                         : 1 090 Kbps
Width                            : 720 pixels
Height                           : 576 pixels
Display aspect ratio             : 5/4
Frame rate                       : 25.000 fps
Standard                         : PAL
Resolution                       : 24 bits
Colorimetry                      : 4:2:0
Scan type                        : Progressive
Bits/(Pixel*Frame)               : 0.105
Stream size                      : 1.97 GiB (91%)
Writing library                  : Lavc52.108.0

Audio
ID                               : 1
Format                           : MPEG Audio
Format version                   : Version 1
Format profile                   : Layer 3
Codec ID                         : 55
Codec ID/Hint                    : MP3
Duration                         : 1h 42mn
Bit rate mode                    : Constant
Bit rate                         : 256 Kbps
Channel(s)                       : 2 channels
Sampling rate                    : 44.1 KHz
Resolution                       : 16 bits
Stream size                      : 187 MiB (8%)
Alignment                        : Aligned on interleaves
Interleave, duration             : 26 ms (0.65 video frame)
Interleave, preload duration     : 52 ms
Writing library                  : LAME3.98.4

picpicpicpicpicpic
Для увеличения картинки щелкните мышкой по превью

Этот торрент недоступен для скачивания без регистрации, однако доступен по публичной magnet-ссылке (источники с публичных трекеров). Перед использованием ссылки прочтите, пожалуйста Пользовательское соглашение, а также как можно дольше оставайтесь на раздаче! Для того, чтобы скачать сам торрент-файл (который видит больше источников), а также для того, чтобы поблагодарить релизера, вам необходимо зарегистрироваться. Если регистрироваться лень - вы можете также попробовать скачать релиз по нашим партнерским ссылкам ниже.

[underverse.su].t27001.torrent
Трекер: Зарегистрирован   [ 03.05.2013 10:12 ]  

Статус: проверено (by Чертёнок at 03.05.2013 10:26)
Поблагодарили: 1 человек
Тип торрента: публичный - доступные источники с открытых трекеров: 
Размер: 2,16 GB (занимает 0,49 DVDR, для записи нужно 1 болванка DVDR/RW)
 
 


Последний раз редактировалось: матроскин (03.05.2013 13:52), всего редактировалось 1 раз

матроскин Пол:Муж

03-Май-2013 10:19

Качайте и смотрите документальные телепередачи

Яндекс.Метрика powered by Sphinx


В Н И М А Н И Е
Сайт не распространяет и не хранит электронные версии произведений, а лишь бесплатно и без коммерческой выгоды (не требуя взамен платы,
SMS и т.д.) предоставляет доступ к создаваемому пользователями каталогу ссылок на торрент-файлы, которые содержат только списки хеш-сумм.
Убедительная просьба с жалобами обращаться напрямую к пользователю, разместившему торрент файл.

Вверх