Loading...
Error

Тайна убийства Льва Рохлина. [2010, документальный, TVRip]

Статистика раздачи
Размер:  540 MB   |    Зарегистрирован:  3 года 7 месяцев   |    Скачан:  6 раз
Сидов:  1  |  0 KB/s  ]   Личеров:  0  |  0 KB/s  ]

* - сиды/пиры с внешних источников

   
 
Автор Сообщение

матроскин Пол:Муж

03-Май-2013 09:57

Тайна убийства Льва Рохлина.


Год выпуска: 2010
Жанр: документальный
Страна: Россия
Выпущено: Телекомпания НТВ (Совершенно Секретно)
Сюжет фильма:
В ночь со 2 на 3 июля 1998 года генерал-лейтенант Лев Рохлин был найден убитым на собственной даче в деревне Котово Наро-Фоминского района Московской области. Он прошел чуть ли не все "горячие точки". Его вертолёт был сбит в Афганистане и генерал чудом остался жив. В Грузии его машину буквально изрешетили пулями, был дважды контужен в Нагорном Карабахе и Чечне. Но ему не суждено было принять смерть на поле боя. Боевой генерал умер в своей постели во сне. Пуля попала в висок, смерть наступила сразу. Смерть Рохлина шокирует своей безысходной нелепостью. Нелепой кажется официальная версия, что он погиб от руки собственной жены Тамары, безропотно прожившей с ним куда более тяжелые годы гарнизонной жизни. И нелепо не верить дочери, зятю и телохранителю покойного, уверенно утверждающим, что вдову, и без того душевно надломленную тяжелой болезнью сына, вынудили взять на себя страшное преступление под угрозой расправы над домочадцами. Где найти объяснение? Гибель настигла Рохлина в точке наивысших оборотов его политической деятельности. И надо, очевидно, начинать поиск причин трагедии там… Лев Яковлевич Рохлин (1947—199 — русский политический и военный деятель, депутат Гос Думы РФ 2-го созыва, председатель Комитета Гос Думы РФ по обороне (1996—1997), генерал-лейтенант.
Качество видео: TVRip

Продолжительность: 00:46:18
Формат: avi
Видео: DivX 5, 720x540, 1493 kbps
Аудио: русский, оригинал, MP3 2.0, 128 kbps

Код:

General
Complete name                    : C:\Users\Security\Videos\Мамонов\Убийство Рохлина.avi
Format                           : AVI
Format/Info                      : Audio Video Interleave
File size                        : 540 MiB
Duration                         : 46mn 18s
Overall bit rate                 : 1 631 Kbps
Writing library                  : VirtualDub build 29808/release

Video
ID                               : 0
Format                           : MPEG-4 Visual
Format settings, BVOP            : Yes
Format settings, QPel            : No
Format settings, GMC             : No warppoints
Format settings, Matrix          : Default (H.263)
Muxing mode                      : Packed bitstream
Codec ID                         : DX50
Codec ID/Hint                    : DivX 5
Duration                         : 46mn 18s
Bit rate                         : 1 494 Kbps
Width                            : 720 pixels
Height                           : 540 pixels
Display aspect ratio             : 4/3
Frame rate                       : 25.000 fps
Resolution                       : 24 bits
Colorimetry                      : 4:2:0
Scan type                        : Progressive
Bits/(Pixel*Frame)               : 0.154
Stream size                      : 495 MiB (92%)
Writing library                  : DivX 6.8.5

Audio
ID                               : 1
Format                           : MPEG Audio
Format version                   : Version 1
Format profile                   : Layer 3
Codec ID                         : 55
Codec ID/Hint                    : MP3
Duration                         : 46mn 18s
Bit rate mode                    : Constant
Bit rate                         : 128 Kbps
Channel(s)                       : 2 channels
Sampling rate                    : 48.0 KHz
Resolution                       : 16 bits
Stream size                      : 42.4 MiB (8%)
Alignment                        : Split accross interleaves
Interleave, duration             : 40 ms (1.00 video frame)
Interleave, preload duration     : 500 ms

picpicpicpicpicpic
Для увеличения картинки щелкните мышкой по превью

Этот торрент недоступен для скачивания без регистрации, однако доступен по публичной magnet-ссылке (источники с публичных трекеров). Перед использованием ссылки прочтите, пожалуйста Пользовательское соглашение, а также как можно дольше оставайтесь на раздаче! Для того, чтобы скачать сам торрент-файл (который видит больше источников), а также для того, чтобы поблагодарить релизера, вам необходимо зарегистрироваться. Если регистрироваться лень - вы можете также попробовать скачать релиз по нашим партнерским ссылкам ниже.

[underverse.su].t26999.torrent
Трекер: Зарегистрирован   [ 03.05.2013 09:57 ]  

Статус: проверено (by Чертёнок at 03.05.2013 10:26)
Поблагодарили: 1 человек
Тип торрента: публичный - доступные источники с открытых трекеров: 
Размер: 540 MB (занимает 0,12 DVDR, для записи нужно 1 болванка DVDR/RW)
 
 

матроскин Пол:Муж

03-Май-2013 09:58

Качайте и смотрите документальные фильмы!

.

Яндекс.Метрика powered by Sphinx


В Н И М А Н И Е
Сайт не распространяет и не хранит электронные версии произведений, а лишь бесплатно и без коммерческой выгоды (не требуя взамен платы,
SMS и т.д.) предоставляет доступ к создаваемому пользователями каталогу ссылок на торрент-файлы, которые содержат только списки хеш-сумм.
Убедительная просьба с жалобами обращаться напрямую к пользователю, разместившему торрент файл.

Вверх