Loading...
Error

Особое мнение. Альбац Е.М [2011,телепередача, TVRip]

Статистика раздачи
Размер:  446 MB   |    Зарегистрирован:  3 года 6 месяцев   |    Скачан:  0 раз

Полного источника не было: 2 года 3 месяца

Сидов:  0  |  0 KB/s  ]   Личеров:  0  |  0 KB/s  ]

* - сиды/пиры с внешних источников

   
 
Автор Сообщение

матроскин Пол:Муж

03-Май-2013 09:45

Особое мнение. Альбац Е.М


Год выпуска: 2011
Жанр: документальный
Страна: Россия
Выпущено: Радиокомпания" Эхо Москвы"
Сюжет фильма:
В студию радиокомпании "Эхо Москвы" была приглашена главный редактор журнала Нью Таймс Альбац Е.М. которая высказала свое мнение о Путине:
Путин пренебрежительно относится к гражданам Р.Ф. и не уважает Конституцию Российской Федерации.Путин себя воспринимает как "спаситель отечества",он абсолютно стал неадекватен-это прямой результат несменяемости нынешней власти и коррупции в России. Путин себя считает "величиной,а остальные для него дерьмо,которое мешается у него под ногами."
Качество видео: TVRip

Продолжительность: 00:31:31
Формат: avi
Видео: DivX 4, 720x576, 1709 kbps
Аудио: русский, оригинал, MP3 2.0, 256 kbps

Код:

General
Complete name                    : C:\Users\Security\Videos\Мамонов\Путин (Особое мнение).avi
Format                           : AVI
Format/Info                      : Audio Video Interleave
File size                        : 446 MiB
Duration                         : 31mn 31s
Overall bit rate                 : 1 977 Kbps
Writing application              : Lavf52.93.0

Video
ID                               : 0
Format                           : MPEG-4 Visual
Format profile                   : Simple@L1
Format settings, BVOP            : No
Format settings, QPel            : No
Format settings, GMC             : No warppoints
Format settings, Matrix          : Default (H.263)
Codec ID                         : DIVX
Codec ID/Info                    : Project Mayo
Codec ID/Hint                    : DivX 4
Duration                         : 31mn 30s
Bit rate                         : 1 709 Kbps
Width                            : 720 pixels
Height                           : 576 pixels
Display aspect ratio             : 5/4
Frame rate                       : 25.000 fps
Standard                         : PAL
Resolution                       : 24 bits
Colorimetry                      : 4:2:0
Scan type                        : Progressive
Bits/(Pixel*Frame)               : 0.165
Stream size                      : 385 MiB (86%)
Writing library                  : Lavc52.108.0

Audio
ID                               : 1
Format                           : MPEG Audio
Format version                   : Version 1
Format profile                   : Layer 3
Codec ID                         : 55
Codec ID/Hint                    : MP3
Duration                         : 31mn 31s
Bit rate mode                    : Constant
Bit rate                         : 256 Kbps
Channel(s)                       : 2 channels
Sampling rate                    : 44.1 KHz
Resolution                       : 16 bits
Stream size                      : 57.7 MiB (13%)
Alignment                        : Aligned on interleaves
Interleave, duration             : 26 ms (0.65 video frame)
Writing library                  : LAME3.98.4

picpicpicpicpic
Для увеличения картинки щелкните мышкой по превью

Этот торрент недоступен для скачивания без регистрации, однако доступен по публичной magnet-ссылке (источники с публичных трекеров). Перед использованием ссылки прочтите, пожалуйста Пользовательское соглашение, а также как можно дольше оставайтесь на раздаче! Для того, чтобы скачать сам торрент-файл (который видит больше источников), а также для того, чтобы поблагодарить релизера, вам необходимо зарегистрироваться. Если регистрироваться лень - вы можете также попробовать скачать релиз по нашим партнерским ссылкам ниже.

[underverse.su].t26996.torrent
Трекер: Зарегистрирован   [ 03.05.2013 09:45 ]  

Статус: проверено (by Чертёнок at 03.05.2013 09:48)
Поблагодарили: пока никто не поблагодарил...
Тип торрента: публичный - доступные источники с открытых трекеров: 
Размер: 446 MB (занимает 0,1 DVDR, для записи нужно 1 болванка DVDR/RW)
 
 
Похожие темы
Форум Тема Автор Торрент Отв. Посл. сооб.
Зарубежное кино [DVDRip, Low-Res HDRip, и т.д.] Особое мнение / Minority Report (Стивен Спилберг) [2002 г., фантастика, боевик, триллер, драма, детектив, DVDRip] Dmitriy
4 | 0

2 | 1169

13

13.05.2009 15:57

Зарубежное кино [DVDRip, Low-Res HDRip, и т.д.] Особое мнение / Minority Report (Стивен Спилберг) [2002 г., фантастика, боевик, триллер, детектив, BDRip-AVC] Dub + MVO + AVO (Гаврилов) + AVO (Рябов) + Original (Eng) + Subs (rus, eng) DarkAngel
24 | 13

1 | 788

24

27.11.2012 12:49

Зарубежное кино [DVDRip, Low-Res HDRip, и т.д.] Особое мнение / Minority report (Стивен Спилберг / Steven Spielberg) [2002 г., фантастика, боевик, триллер, HDRip] Dub 90ytr90
72 | 0

0 | 705

38

11.12.2014 15:18

Зарубежное кино [DVDRip, Low-Res HDRip, и т.д.] Особое мнение / Minority Report (Стивен Спилберг) [2002 г., Фантастика, Боевик, Триллер, BDRip-AVC] Dub (RUS, Лицензия) + MVO (RUS) + 2-AVO (RUS, А. Гаврилов / С. Рябов) + MVO (UKR, ICTV) + Original... Ведьмочка
2 | 0

0 | 389

3

07.02.2015 17:14

Зарубежное кино [DVDRip, Low-Res HDRip, и т.д.] Особое мнение / Minority report (Стивен Спилберг / Steven Spielberg) [2002 г., фантастика, боевик, триллер, HDRip] Dub 90ytr90
13 | 1

1 | 642

18

08.03.2015 17:55

Зарубежные сериалы Особое мнение / Minority Report / Сезон 1 (1-10 серии из 10) (Грег Биман, Олатунде Осунсанми, Дэвид Стрейтон) [2015 г., фантастика, драма, HDTVRip] MVO (NewStudio) + Original older
67 | 15

7 | 1250

16

04.12.2015 07:09

Информационно-аналитические передачи Особое мнение (Радиокомпания" Эхо Москвы") [2011, телепередача, TVRip] матроскин
0 | 0

1 | 1332

1

27.04.2013 11:32

Информационно-аналитические передачи Особое мнение. Михаил Веллер [2012, телепередача, TVRip] матроскин
0 | 0

1 | 812

0

30.04.2013 14:22

Зарубежное кино [HDDVDRip / BDRip / WEB-DL / HDTV 1080/720р] Особое мнение / Minority Report (Стивен Спилберг / Steven Spielberg) [2002 г., фантастика, боевик, триллер, детектив, BDRip 720p] [DUB, AVO] Kavasar
1 | 0

0 | 595

9

11.12.2014 03:47

Зарубежное кино [HDDVDRip / BDRip / WEB-DL / HDTV 1080/720р] Особое мнение / Minority Report (Стивен Спилберг) [2002 г., Фантастика, Боевик, Триллер, BDRip 1080p] Dub (RUS, Лицензия) + AVO (RUS, А. Гаврилов) + Original (ENG) + Subs (RUS, ENG, UKR) Ведьмочка
3 | 0

0 | 374

2

07.02.2015 16:48

матроскин Пол:Муж

03-Май-2013 09:46

Качайте и смотрите документальные телепередачи

Яндекс.Метрика powered by Sphinx


В Н И М А Н И Е
Сайт не распространяет и не хранит электронные версии произведений, а лишь бесплатно и без коммерческой выгоды (не требуя взамен платы,
SMS и т.д.) предоставляет доступ к создаваемому пользователями каталогу ссылок на торрент-файлы, которые содержат только списки хеш-сумм.
Убедительная просьба с жалобами обращаться напрямую к пользователю, разместившему торрент файл.

Вверх