Loading...
Error

Говорим и показываем. Виктор Салтыков и Ирина Салтыкова.[2011, телепередача, Ток-Шоу, TVRip]

Статистика раздачи
Размер:  711 MB   |    Зарегистрирован:  4 года 6 месяцев   |    Скачан:  0 раз

Полного источника не было: 24 дня

Сидов:  0  |  0 KB/s  ]   Личеров:  0  |  0 KB/s  ]

* - сиды/пиры с внешних источников

   
 
Автор Сообщение

матроскин Пол:Муж

03-Май-2013 09:25

Говорим и показываем. Виктор Салтыков и Ирина Салтыкова.


Год выпуска: 2011
Жанр: Ток-Шоу
Страна: Россия
Ведущий: Леонид Закошанский
Описание:
В студии НТВ экс-супруги Виктор Салтыков и Ирина Салтыкова. В Ток-Шоу рассказывается как жили в семейных узах Салтыковы и из-за чего не сложилась их семейная жизнь.
Качество видео: TVRip

Продолжительность: 00:42:55
Формат: AVI
Видео: DivX, 720x576, ~2047 kbps
Аудио: русский, оригинал, MP3 2.0, 256.00 kbps

Код:

[img]http://underverse.me/images/wiz/duration.png[/img] [b]Продолжительность: [/b]00:42:55
[img]http://underverse.me/images/wiz/info.png[/img] [b]Формат: [/b]avi
[img]http://underverse.me/images/wiz/vtrack.png[/img] [b]Видео: [/b] DivX 4, 720x576, 2048 kbps
[img]http://underverse.me/images/wiz/atrack.png[/img] [b]Аудио: [/b]русский, оригинал, MP3 2.0, 256 kbps
[spoiler="[b]MediaInfo[/b]"][code]General
Complete name                    : C:\Users\Security\Videos\Мамонов\Виктор Салтыков в ток-шоу' Говорим и показываем'.avi
Format                           : AVI
Format/Info                      : Audio Video Interleave
File size                        : 711 MiB
Duration                         : 42mn 55s
Overall bit rate                 : 2 317 Kbps
Writing application              : Lavf52.93.0

Video
ID                               : 0
Format                           : MPEG-4 Visual
Format profile                   : Simple@L1
Format settings, BVOP            : No
Format settings, QPel            : No
Format settings, GMC             : No warppoints
Format settings, Matrix          : Default (H.263)
Codec ID                         : DIVX
Codec ID/Info                    : Project Mayo
Codec ID/Hint                    : DivX 4
Duration                         : 42mn 55s
Bit rate                         : 2 048 Kbps
Width                            : 720 pixels
Height                           : 576 pixels
Display aspect ratio             : 5/4
Frame rate                       : 25.000 fps
Standard                         : PAL
Resolution                       : 24 bits
Colorimetry                      : 4:2:0
Scan type                        : Progressive
Bits/(Pixel*Frame)               : 0.198
Stream size                      : 629 MiB (88%)
Writing library                  : Lavc52.108.0

Audio
ID                               : 1
Format                           : MPEG Audio
Format version                   : Version 1
Format profile                   : Layer 3
Codec ID                         : 55
Codec ID/Hint                    : MP3
Duration                         : 42mn 55s
Bit rate mode                    : Constant
Bit rate                         : 256 Kbps
Channel(s)                       : 2 channels
Sampling rate                    : 44.1 KHz
Resolution                       : 16 bits
Stream size                      : 78.6 MiB (11%)
Alignment                        : Aligned on interleaves
Interleave, duration             : 26 ms (0.65 video frame)
Writing library                  : LAME3.98.4

[/code][/spoiler]
picpicpicpicpicpic
Для увеличения картинки щелкните мышкой по превью

Этот торрент недоступен для скачивания без регистрации, однако доступен по публичной magnet-ссылке (источники с публичных трекеров). Перед использованием ссылки прочтите, пожалуйста Пользовательское соглашение, а также как можно дольше оставайтесь на раздаче! Для того, чтобы скачать сам торрент-файл (который видит больше источников), а также для того, чтобы поблагодарить релизера, вам необходимо зарегистрироваться. Если регистрироваться лень - вы можете также попробовать скачать релиз по нашим партнерским ссылкам ниже.

[underverse.su].t26994.torrent
Трекер: Зарегистрирован   [ 03.05.2013 09:25 ]  

Статус: проверено (by Чертёнок at 03.05.2013 09:47)
Поблагодарили: пока никто не поблагодарил...
Тип торрента: публичный - доступные источники с открытых трекеров: 
Размер: 711 MB (занимает 0,16 DVDR, для записи нужно 1 болванка DVDR/RW)
 
 

матроскин Пол:Муж

03-Май-2013 09:29

.

Яндекс.Метрика powered by Sphinx


В Н И М А Н И Е
Сайт не распространяет и не хранит электронные версии произведений, а лишь бесплатно и без коммерческой выгоды (не требуя взамен платы,
SMS и т.д.) предоставляет доступ к создаваемому пользователями каталогу ссылок на торрент-файлы, которые содержат только списки хеш-сумм.
Убедительная просьба с жалобами обращаться напрямую к пользователю, разместившему торрент файл.

Вверх