Loading...
Error

На прицеле ваш мозг (Феликс Соболев, Виктор Олендер) [1984, документальный, VHSRip]

Статистика раздачи
Размер:  932 MB   |    Зарегистрирован:  3 года 7 месяцев   |    Скачан:  5 раз

Полного источника не было: 1 день 17 часов

Сидов:  0  |  0 KB/s  ]   Личеров:  0  |  0 KB/s  ]

* - сиды/пиры с внешних источников

   
 
Автор Сообщение

матроскин Пол:Муж

03-Май-2013 08:39

На прицеле ваш мозг


Год выпуска: 1984
Жанр: документальный, исторический
Страна: СССР
Режиссер: Феликс Соболев, Виктор Олендер
Сюжет фильма:
Речь в фильме идет об аспектах современной идеологической борьбы. Приёмы и способы воздействия на сознание избирателя, производство иллюзий, идеологическая обработка, способы ведения информационных войн. Фильм, который несмотря на более чем 28-летнюю давность, актуален сегодня.Уникальный документальный фильм о том как нами манипулируют через рекламу, фильмы. Примеры попыток манипулирования сознанием, которые применяет Америка: Здесь на Украине или в Грузии или в Узбекистане нам расскажут о русификации. А завтра русским расскажут, о том, что все их проблемы из-за грузин, узбеков, из-за украинцев. Чехам и словакам скажут, что они могли бы жить лучше, если бы в Польше больше работали, а в Польше сообщат, что ее проблемы были бы не так остры, если бы ей активнее помогала Чехословакия. И называется такой прием перекрестной провокацией... Нам могут, что-то не показать, не до рассказать – такой прием называют полу правдой или усеченной правдой. Этот прием очень близко соседствует с приемом умолчания. Как видите, могущественные силы, скупая талантливых и бездарных, добропорядочных и бессовестных исполнителей продают, не только зубную пасту и религию, президентов и сигареты, не только это... Вот они - жертвы психологической обработки… Помните, на прицеле и ваш мозг, помните. Но и помните то, что империя внушения не всесильна. Она боится разума, помните, она боится, разума, помните... В процессе съемки Феликс Соболев скоропостижно скончался в возрасте 52 лет, фильм закончил Виктор Олендер.
Качество видео: VHSRip

Продолжительность: 00:56:13
Формат: avi
Видео: DivX 4, 720x576, 2048 kbps
Аудио: русский, оригинал, MP3 2.0, 256 kbps

Код:

General
Complete name                    : C:\Users\Security\Videos\Мамонов\Na.pricele.vash.mozg.1984.VHSRip.avi
Format                           : AVI
Format/Info                      : Audio Video Interleave
File size                        : 932 MiB
Duration                         : 56mn 13s
Overall bit rate                 : 2 317 Kbps
Writing application              : Lavf52.93.0

Video
ID                               : 0
Format                           : MPEG-4 Visual
Format profile                   : Simple@L1
Format settings, BVOP            : No
Format settings, QPel            : No
Format settings, GMC             : No warppoints
Format settings, Matrix          : Default (H.263)
Codec ID                         : DIVX
Codec ID/Info                    : Project Mayo
Codec ID/Hint                    : DivX 4
Duration                         : 56mn 13s
Bit rate                         : 2 048 Kbps
Width                            : 720 pixels
Height                           : 576 pixels
Display aspect ratio             : 5/4
Frame rate                       : 25.000 fps
Standard                         : PAL
Resolution                       : 24 bits
Colorimetry                      : 4:2:0
Scan type                        : Progressive
Bits/(Pixel*Frame)               : 0.198
Stream size                      : 824 MiB (88%)
Writing library                  : Lavc52.108.0

Audio
ID                               : 1
Format                           : MPEG Audio
Format version                   : Version 1
Format profile                   : Layer 3
Codec ID                         : 55
Codec ID/Hint                    : MP3
Duration                         : 56mn 13s
Bit rate mode                    : Constant
Bit rate                         : 256 Kbps
Channel(s)                       : 2 channels
Sampling rate                    : 44.1 KHz
Resolution                       : 16 bits
Stream size                      : 103 MiB (11%)
Alignment                        : Aligned on interleaves
Interleave, duration             : 26 ms (0.65 video frame)
Interleave, preload duration     : 52 ms
Writing library                  : LAME3.98.4

picpicpicpicpicpic
Для увеличения картинки щелкните мышкой по превью

Этот торрент недоступен для скачивания без регистрации, однако доступен по публичной magnet-ссылке (источники с публичных трекеров). Перед использованием ссылки прочтите, пожалуйста Пользовательское соглашение, а также как можно дольше оставайтесь на раздаче! Для того, чтобы скачать сам торрент-файл (который видит больше источников), а также для того, чтобы поблагодарить релизера, вам необходимо зарегистрироваться. Если регистрироваться лень - вы можете также попробовать скачать релиз по нашим партнерским ссылкам ниже.

[underverse.su].t26990.torrent
Трекер: Зарегистрирован   [ 03.05.2013 08:39 ]  

Статус: проверено (by Чертёнок at 03.05.2013 08:44)
Поблагодарили: 1 человек
Тип торрента: публичный - доступные источники с открытых трекеров: 
Размер: 932 MB (занимает 0,21 DVDR, для записи нужно 1 болванка DVDR/RW)
 
 

матроскин Пол:Муж

03-Май-2013 08:46

Качайте и смотрите документальные фильмы!

.

Яндекс.Метрика powered by Sphinx


В Н И М А Н И Е
Сайт не распространяет и не хранит электронные версии произведений, а лишь бесплатно и без коммерческой выгоды (не требуя взамен платы,
SMS и т.д.) предоставляет доступ к создаваемому пользователями каталогу ссылок на торрент-файлы, которые содержат только списки хеш-сумм.
Убедительная просьба с жалобами обращаться напрямую к пользователю, разместившему торрент файл.

Вверх