Loading...
Error

Право голоса. Милиция-полиция: что изменилось? [2012, телевизионная передача, TVRip]

Статистика раздачи
Размер:  918 MB   |    Зарегистрирован:  3 года 7 месяцев   |    Скачан:  0 раз
Сидов:  1  |  0 KB/s  ]   Личеров:  0  |  0 KB/s  ]

* - сиды/пиры с внешних источников

   
 
Автор Сообщение

матроскин Пол:Муж

03-Май-2013 08:21

Право голоса. Милиция-полиция: что изменилось?


Год выпуска: 2012
Жанр: документальный
Страна: Россия
Выпущено: 3 канал ТВ Центр
Сюжет фильма:
1 марта 2012 года исполнился ровно год, как вступил в силу новый закон о Полиции. А 11 марта 2012 года страна узнала о преступлениях полиции в Казани. И возникают вопросы, как проводили реформу МВД. если такие сотрудники остались в составе Министерства и что нам надо делать? Реформы МВД по своей сути не было, никакой чистки в МВД не проводилось, а просто уволили принципиальных сотрудников милиции ,а преступники как работали, так и продолжают работать в МВД, получая очередные звания, регалии. МВД полностью сраслась с преступными группировками.
Качество видео: TVRip

Продолжительность: 00:55:21
Формат: avi
Видео: DivX 4, 720x576, 2048 kbps
Аудио: русский, оригинал, MP3 2.0, 256 kbps

Код:

General
Complete name                    : C:\Users\Security\Videos\Мамонов\Право голоса.avi
Format                           : AVI
Format/Info                      : Audio Video Interleave
File size                        : 918 MiB
Duration                         : 55mn 21s
Overall bit rate                 : 2 318 Kbps
Writing application              : Lavf52.93.0

Video
ID                               : 0
Format                           : MPEG-4 Visual
Format profile                   : Simple@L1
Format settings, BVOP            : No
Format settings, QPel            : No
Format settings, GMC             : No warppoints
Format settings, Matrix          : Default (H.263)
Codec ID                         : DIVX
Codec ID/Info                    : Project Mayo
Codec ID/Hint                    : DivX 4
Duration                         : 55mn 20s
Bit rate                         : 2 049 Kbps
Width                            : 720 pixels
Height                           : 576 pixels
Display aspect ratio             : 5/4
Frame rate                       : 29.920 fps
Standard                         : PAL
Resolution                       : 24 bits
Colorimetry                      : 4:2:0
Scan type                        : Progressive
Bits/(Pixel*Frame)               : 0.165
Stream size                      : 811 MiB (88%)
Writing library                  : Lavc52.108.0

Audio
ID                               : 1
Format                           : MPEG Audio
Format version                   : Version 1
Format profile                   : Layer 3
Codec ID                         : 55
Codec ID/Hint                    : MP3
Duration                         : 55mn 21s
Bit rate mode                    : Constant
Bit rate                         : 256 Kbps
Channel(s)                       : 2 channels
Sampling rate                    : 44.1 KHz
Resolution                       : 16 bits
Stream size                      : 101 MiB (11%)
Alignment                        : Aligned on interleaves
Interleave, duration             : 26 ms (0.78 video frame)
Writing library                  : LAME3.98.4

picpicpicpicpicpic
Для увеличения картинки щелкните мышкой по превью

Этот торрент недоступен для скачивания без регистрации, однако доступен по публичной magnet-ссылке (источники с публичных трекеров). Перед использованием ссылки прочтите, пожалуйста Пользовательское соглашение, а также как можно дольше оставайтесь на раздаче! Для того, чтобы скачать сам торрент-файл (который видит больше источников), а также для того, чтобы поблагодарить релизера, вам необходимо зарегистрироваться. Если регистрироваться лень - вы можете также попробовать скачать релиз по нашим партнерским ссылкам ниже.

[underverse.su].t26988.torrent
Трекер: Зарегистрирован   [ 03.05.2013 08:21 ]  

Статус: проверено (by Чертёнок at 03.05.2013 08:43)
Поблагодарили: пока никто не поблагодарил...
Тип торрента: публичный - доступные источники с открытых трекеров: 
Размер: 918 MB (занимает 0,2 DVDR, для записи нужно 1 болванка DVDR/RW)
 
 
Похожие темы
Форум Тема Автор Торрент Отв. Посл. сооб.
Информационно-аналитические передачи Право голоса. Берегите полицию! [2012, телевизионная передача, TVRip] матроскин
1 | 0

1 | 675

0

30.04.2013 06:36

Информационно-аналитические передачи Право голоса. Будем Родину любить! [2012, телевизионная передача, TVRip] матроскин
1 | 0

1 | 650

0

30.04.2013 06:54

Информационно-аналитические передачи Право голоса. За что хватать взяточника? [2012, телевизионная передача, TVRip] матроскин
0 | 0

1 | 567

0

30.04.2013 07:01

Информационно-аналитические передачи Право голоса. Борьба с коррупцией! [2012, телевизионная передача, TVRip] матроскин
1 | 0

1 | 715

1

30.04.2013 07:06

Информационно-аналитические передачи Право голоса. В России нищих нет? [2012, телевизионная передача, TVRip] матроскин
0 | 0

1 | 773

0

30.04.2013 16:27

Информационно-аналитические передачи Право голоса. Смертная казнь для педофилов? [2012, телевизионная передача, TVRip] матроскин
1 | 0

1 | 810

0

30.04.2013 16:50

Информационно-аналитические передачи Право голоса. Коррупция: Перегнули палку? [телепередача, эфир от 14.05.2013г, TVRip] матроскин
1 | 0

2 | 1314

2

20.05.2013 12:17

Информационно-аналитические передачи Право голоса. 90 лет без Ленина В.И. [2014 г., телепередача, TVRip] матроскин
1 | 0

2 | 683

1

05.02.2014 17:33

Информационно-аналитические передачи Право голоса. За что мы любим СССР (эфир от 06.05. 2016 г.) [2016 г., документальный, TVRip] матроскин
1 | 0

2 | 1026

0

11.05.2016 11:52

матроскин Пол:Муж

03-Май-2013 08:23

Качайте и смотрите документальные телепередачи

альфа Пол:Муж

14-Май-2013 19:49

Пока будет существовать эта преступная незаконная власть в нашей стране, такой будет и полиция которая погрязла во взятках и коррупции.
Уважаемый Матроскин! так держать.

Яндекс.Метрика powered by Sphinx


В Н И М А Н И Е
Сайт не распространяет и не хранит электронные версии произведений, а лишь бесплатно и без коммерческой выгоды (не требуя взамен платы,
SMS и т.д.) предоставляет доступ к создаваемому пользователями каталогу ссылок на торрент-файлы, которые содержат только списки хеш-сумм.
Убедительная просьба с жалобами обращаться напрямую к пользователю, разместившему торрент файл.

Вверх