Loading...
Error

Громкое дело: Жаркая осень 93-го [2010, документальный, TVRip]

Статистика раздачи
Размер:  504 MB   |    Зарегистрирован:  3 года 7 месяцев   |    Скачан:  9 раз

Полного источника не было: 8 часов

Сидов:  0  |  0 KB/s  ]   Личеров:  0  |  0 KB/s  ]

* - сиды/пиры с внешних источников

   
 
Автор Сообщение

матроскин Пол:Муж

03-Май-2013 07:57

Громкое дело: Жаркая осень 93-го


Год выпуска: 2010
Жанр: документальный
Страна: Россия
Выпущено: Телеканал РЕН-ТВ
Сюжет фильма:
Цикл документальных расследований о наиболее драматических событиях современности и ее знаковых фигурах. Повествование строится на уникальном документальном и архивном материале в первой публикации, эксклюзивных интервью с очевидцами и участниками событий. Новый поворот в раскрытии самых резонансных преступлений, непредвзятое исследование скрытых технологий, схем и заговоров. Еще недавно секретные факты и документы опровергают прежние истины и проливают свет на истинных манипуляторов общественным мнением в России, которые бы предпочли, чтобы об этих громких делах не заговорили вновь.
Фильм посвящен событиям октября 1993 года. Государственный переворот. Свидетельства очевидцев, мнения экспертов, исследование причин событий.
Качество видео: TVRip

Продолжительность: 00:47:57
Формат: avi
Видео: XviD, 640x480, 1330 kbps
Аудио: русский, оригинал, MP3 2.0, 128 kbps

Код:

General
Complete name                    : C:\Users\Security\Videos\Мамонов\Громкое дело Жаркая осень 1993г.avi
Format                           : AVI
Format/Info                      : Audio Video Interleave
File size                        : 504 MiB
Duration                         : 47mn 57s
Overall bit rate                 : 1 468 Kbps
Writing application              : VirtualDubMod 1.5.10.2 (build 2540/release)
Writing library                  : VirtualDubMod build 2540/release

Video
ID                               : 0
Format                           : MPEG-4 Visual
Format profile                   : Simple@L1
Format settings, BVOP            : No
Format settings, QPel            : No
Format settings, GMC             : No warppoints
Format settings, Matrix          : Default (H.263)
Codec ID                         : XVID
Codec ID/Hint                    : XviD
Duration                         : 47mn 57s
Bit rate                         : 1 330 Kbps
Width                            : 640 pixels
Height                           : 480 pixels
Display aspect ratio             : 4/3
Frame rate                       : 25.000 fps
Resolution                       : 24 bits
Colorimetry                      : 4:2:0
Scan type                        : Progressive
Bits/(Pixel*Frame)               : 0.173
Stream size                      : 456 MiB (91%)
Writing library                  : Lavc52.30.2

Audio
ID                               : 1
Format                           : MPEG Audio
Format version                   : Version 1
Format profile                   : Layer 3
Codec ID                         : 55
Codec ID/Hint                    : MP3
Duration                         : 47mn 57s
Bit rate mode                    : Constant
Bit rate                         : 128 Kbps
Channel(s)                       : 2 channels
Sampling rate                    : 48.0 KHz
Resolution                       : 16 bits
Stream size                      : 43.9 MiB (9%)
Alignment                        : Split accross interleaves
Interleave, duration             : 40 ms (1.00 video frame)
Interleave, preload duration     : 500 ms

picpicpicpicpicpic
Для увеличения картинки щелкните мышкой по превью

Этот торрент недоступен для скачивания без регистрации, однако доступен по публичной magnet-ссылке (источники с публичных трекеров). Перед использованием ссылки прочтите, пожалуйста Пользовательское соглашение, а также как можно дольше оставайтесь на раздаче! Для того, чтобы скачать сам торрент-файл (который видит больше источников), а также для того, чтобы поблагодарить релизера, вам необходимо зарегистрироваться. Если регистрироваться лень - вы можете также попробовать скачать релиз по нашим партнерским ссылкам ниже.

[underverse.su].t26985.torrent
Трекер: Зарегистрирован   [ 03.05.2013 07:57 ]  

Статус: проверено (by Чертёнок at 03.05.2013 08:42)
Поблагодарили: 1 человек
Тип торрента: публичный - доступные источники с открытых трекеров: 
Размер: 504 MB (занимает 0,11 DVDR, для записи нужно 1 болванка DVDR/RW)
 
 
Похожие темы
Форум Тема Автор Торрент Отв. Посл. сооб.
Военные хроники Громкое дело. Афганская западня. [2006 г., документальный, военный , TVRip] матроскин
1 | 0

2 | 1138

13

20.05.2013 12:13

Другие фильмы Громкое дело. "Япончик. Плановый отстрел" (Евгений Пешков) [2009 г., документальный, расследование, криминал, TVRip] ARI71
2 | 0

0 | 572

4

30.07.2016 07:37



Последний раз редактировалось: матроскин (03.05.2013 08:00), всего редактировалось 1 раз

матроскин Пол:Муж

03-Май-2013 07:59

Качайте и смотрите документальные фильмы!

.

Яндекс.Метрика powered by Sphinx


В Н И М А Н И Е
Сайт не распространяет и не хранит электронные версии произведений, а лишь бесплатно и без коммерческой выгоды (не требуя взамен платы,
SMS и т.д.) предоставляет доступ к создаваемому пользователями каталогу ссылок на торрент-файлы, которые содержат только списки хеш-сумм.
Убедительная просьба с жалобами обращаться напрямую к пользователю, разместившему торрент файл.

Вверх