Loading...
Error

Парень с Таганки / Noormees Tagankalt (Eesti television, Tallinn.) [1972, документальный, TVRip]

Статистика раздачи
Размер:  1,01 GB   |    Зарегистрирован:  3 года 7 месяцев   |    Скачан:  1 раз

Полного источника не было: 2 года 7 месяцев

Сидов:  0  |  0 KB/s  ]   Личеров:  0  |  0 KB/s  ]

* - сиды/пиры с внешних источников

   
 
Автор Сообщение

матроскин Пол:Муж

03-Май-2013 07:43

Парень с Таганки / Noormees Tagankalt (Eesti television, Tallinn.)


Год выпуска: 1972
Жанр: документальный
Страна: СССР
Выпущено: Eesti television, Tallinn-ETV2
Сюжет фильма:
15 июня 1972 года в 22:50 по эстонскому телевидению был показан фильм `Парень с Таганки`. Первое появление Высоцкого на Советском телеэкране, если не считать кинофильмов с его участием.
Качество видео: TVRip

Продолжительность: 00:55:49
Формат: avi
Видео: XviD, 720x544, 2273 kbps
Аудио: русский, оригинал, MP3 2.0, 320 kbps

Код:

General
Complete name                    : C:\Users\Security\Videos\Мамонов\Paren s taganki TVRip.avi
Format                           : AVI
Format/Info                      : Audio Video Interleave
Format profile                   : OpenDML
File size                        : 1.01 GiB
Duration                         : 55mn 49s
Overall bit rate                 : 2 582 Kbps
Writing application              : MediaCoder 0.6

Video
ID                               : 0
Format                           : MPEG-4 Visual
Format profile                   : Simple@L3
Format settings, BVOP            : No
Format settings, QPel            : No
Format settings, GMC             : No warppoints
Format settings, Matrix          : Default (H.263)
Codec ID                         : XVID
Codec ID/Hint                    : XviD
Duration                         : 55mn 23s
Bit rate                         : 2 273 Kbps
Width                            : 720 pixels
Height                           : 544 pixels
Display aspect ratio             : 4/3
Frame rate                       : 25.000 fps
Resolution                       : 24 bits
Colorimetry                      : 4:2:0
Scan type                        : Progressive
Bits/(Pixel*Frame)               : 0.232
Stream size                      : 901 MiB (87%)
Writing library                  : XviD 1.2.0.dev47 (UTC 2006-11-01)

Audio
ID                               : 1
Format                           : MPEG Audio
Format version                   : Version 1
Format profile                   : Layer 3
Codec ID                         : 55
Codec ID/Hint                    : MP3
Duration                         : 55mn 49s
Bit rate mode                    : Constant
Bit rate                         : 320 Kbps
Channel(s)                       : 2 channels
Sampling rate                    : 48.0 KHz
Resolution                       : 16 bits
Stream size                      : 128 MiB (12%)
Alignment                        : Split accross interleaves
Interleave, duration             : 500 ms (12.50 video frames)
Interleave, preload duration     : 500 ms
Writing library                  : LAME3.97

picpicpicpicpicpic
Для увеличения картинки щелкните мышкой по превью

Этот торрент недоступен для скачивания без регистрации, однако доступен по публичной magnet-ссылке (источники с публичных трекеров). Перед использованием ссылки прочтите, пожалуйста Пользовательское соглашение, а также как можно дольше оставайтесь на раздаче! Для того, чтобы скачать сам торрент-файл (который видит больше источников), а также для того, чтобы поблагодарить релизера, вам необходимо зарегистрироваться. Если регистрироваться лень - вы можете также попробовать скачать релиз по нашим партнерским ссылкам ниже.

[underverse.su].t26984.torrent
Трекер: Зарегистрирован   [ 03.05.2013 07:43 ]  

Статус: проверено (by Чертёнок at 03.05.2013 08:42)
Поблагодарили: 1 человек
Тип торрента: публичный - доступные источники с открытых трекеров: 
Размер: 1,01 GB (занимает 0,23 DVDR, для записи нужно 1 болванка DVDR/RW)
 
 
Похожие темы
Форум Тема Автор Торрент Отв. Посл. сооб.
Другие фильмы Парень с Таганки. Владимир Высоцкий (Эрих Рейн) [1972 г., документальный, фильм-монолог, IPTVRip] ARI71
3 | 0

0 | 181

0

19.11.2016 08:21

матроскин Пол:Муж

03-Май-2013 07:46

Качайте и смотрите интересное документальное кино
.

Яндекс.Метрика powered by Sphinx


В Н И М А Н И Е
Сайт не распространяет и не хранит электронные версии произведений, а лишь бесплатно и без коммерческой выгоды (не требуя взамен платы,
SMS и т.д.) предоставляет доступ к создаваемому пользователями каталогу ссылок на торрент-файлы, которые содержат только списки хеш-сумм.
Убедительная просьба с жалобами обращаться напрямую к пользователю, разместившему торрент файл.

Вверх