Loading...
Error

Треугольник. Зюганов Г.А. [2011, телепередача, TVRip]

Статистика раздачи
Размер:  655 MB   |    Зарегистрирован:  3 года 11 месяцев   |    Скачан:  0 раз

Полного источника не было: 3 года

Сидов:  0  |  0 KB/s  ]   Личеров:  0  |  0 KB/s  ]

* - сиды/пиры с внешних источников

   
 
Автор Сообщение

матроскин Пол:Муж

03-Май-2013 07:36

Треугольник. Зюганов Г.А.


Год выпуска: 2011
Страна: Россия
Выпущено: 3 канал ТВ-Центр
Ведущие: Елена Павлова,Алена Огнева
Сюжет фильма:
На третий канал ТВ-центр был приглашен лидер КПРФ Геннадий Андреевич Зюганов, который ответил на вопросы телеведущих Елены Павловны и Алены Огневой
Качество видео: TVRip

Продолжительность: 00:34:42
Формат: avi
Видео: DivX, 852x480, 2498 kbps
Аудио: русский, оригинал, MP3 2.0, 128 kbps

Код:

General
Complete name                    : C:\Users\Security\Videos\Мамонов\Treugolnik TVRip 655 MB.avi
Format                           : AVI
Format/Info                      : Audio Video Interleave
File size                        : 655 MiB
Duration                         : 34mn 42s
Overall bit rate                 : 2 639 Kbps
Writing application              : Lavf52.64.2

Video
ID                               : 0
Format                           : MPEG-4 Visual
Format profile                   : Simple@L1
Format settings, BVOP            : No
Format settings, QPel            : No
Format settings, GMC             : No warppoints
Format settings, Matrix          : Default (H.263)
Codec ID                         : divx
Codec ID/Info                    : Mainly used by Google
Codec ID/Hint                    : DivX
Duration                         : 34mn 42s
Bit rate                         : 2 498 Kbps
Width                            : 852 pixels
Height                           : 480 pixels
Display aspect ratio             : 16/9
Frame rate                       : 25.000 fps
Resolution                       : 24 bits
Colorimetry                      : 4:2:0
Scan type                        : Progressive
Bits/(Pixel*Frame)               : 0.244
Stream size                      : 620 MiB (95%)
Writing library                  : Lavc52.72.2

Audio
ID                               : 1
Format                           : MPEG Audio
Format version                   : Version 1
Format profile                   : Layer 3
Codec ID                         : 55
Codec ID/Hint                    : MP3
Duration                         : 34mn 42s
Bit rate mode                    : Constant
Bit rate                         : 128 Kbps
Channel(s)                       : 2 channels
Sampling rate                    : 48.0 KHz
Resolution                       : 16 bits
Stream size                      : 31.8 MiB (5%)
Alignment                        : Aligned on interleaves
Interleave, duration             : 24 ms (0.60 video frame)

picpicpicpic
Для увеличения картинки щелкните мышкой по превью

Этот торрент недоступен для скачивания без регистрации, однако доступен по публичной magnet-ссылке (источники с публичных трекеров). Перед использованием ссылки прочтите, пожалуйста Пользовательское соглашение, а также как можно дольше оставайтесь на раздаче! Для того, чтобы скачать сам торрент-файл (который видит больше источников), а также для того, чтобы поблагодарить релизера, вам необходимо зарегистрироваться. Если регистрироваться лень - вы можете также попробовать скачать релиз по нашим партнерским ссылкам ниже.

[underverse.su].t26983.torrent
Трекер: Зарегистрирован   [ 03.05.2013 07:36 ]  

Статус: проверено (by Чертёнок at 03.05.2013 08:41)
Поблагодарили: пока никто не поблагодарил...
Тип торрента: публичный - доступные источники с открытых трекеров: 
Размер: 655 MB (занимает 0,15 DVDR, для записи нужно 1 болванка DVDR/RW)
 
 
Похожие темы
Форум Тема Автор Торрент Отв. Посл. сооб.
Информационно-аналитические передачи Треугольник. Александр Домогаров[2012, телепередача, TVRip] матроскин
0 | 0

1 | 719

0

30.04.2013 15:38

Архив Треугольник / Triangle (Кристофер Смит ) [2009 г., Ужасы, триллер, детектив , HD DVDRip] AntiVir
0 | 0

4 | 1650

8

05.11.2011 14:44

матроскин Пол:Муж

03-Май-2013 07:37

Качайте и смотрите документальные телепередачи

Яндекс.Метрика powered by Sphinx


В Н И М А Н И Е
Сайт не распространяет и не хранит электронные версии произведений, а лишь бесплатно и без коммерческой выгоды (не требуя взамен платы,
SMS и т.д.) предоставляет доступ к создаваемому пользователями каталогу ссылок на торрент-файлы, которые содержат только списки хеш-сумм.
Убедительная просьба с жалобами обращаться напрямую к пользователю, разместившему торрент файл.

Вверх