Loading...
Error

Город порока / Broken City (Аллен Хьюз / Allen Hughes) [2013 г., триллер, драма, криминал, BDRip] MVO

Статистика раздачи
Размер:  1,46 GB   |    Зарегистрирован:  3 года 6 месяцев   |    Скачан:  61 раз

Полного источника не было: 5 месяцев 3 дня

Сидов:  0  |  0 KB/s  ]   Личеров:  0  |  0 KB/s  ]

* - сиды/пиры с внешних источников

   
 
Автор Сообщение

Gaarochi Пол:Муж

03-Май-2013 05:56

Город порока / Broken City
«Proof Can Be a Powerful Weapon.»


Год выпуска: 2013
Жанр: триллер, драма, криминал
Страна: США / Regency Enterprises, Emmett/Furla Films, Black Bear Pictures
Режиссер: Аллен Хьюз / Allen Hughes
В ролях: Марк Уолберг (Billy Taggart), Рассел Кроу (Mayor Hostetler), Кэтрин Зета-Джонс (Cathleen Hostetler), Барри Пеппер (Jack Valliant), Кайл Чандлер (Paul Andrews), Натали Мартинез (Natalie Barrow), Джеффри Райт (Carl Fairbanks), Алона Тал (Katy Bradshaw), Майкл Бич (Tony Jansen), Джеймс Рэнсон (Todd Lancaster)



Сюжет фильма:
История бывшего полицейского Билли Таггерта. 7 лет назад он стрелял в 16-летнего подростка, за что был уволен из полиции. Теперь Таггерт работает частным детективом, которого нанимает мэр, чтобы тот разузнал, не изменяет ли ему жена. Однако расследование адюльтера супруги мэра выливается в настоящий скандал. Человек, с которым жена мэра изменяла мужу, убит, а на поверхность всплывает нехорошая история с недвижимостью.

  • Мировая премьера: 18 января 2013






Качество видео: BDRip [Исходник: Broken.City.2013.1080p.BluRay.AVC.DTS-HD.MA.5.1-EbP]
Продолжительность: 01:48:40
Формат: AVI
Видео: XviD, 720x304, ~1529 kbps avg
Аудио: русский, многоголосый закадровый [профессиональный], AC3 5.1, ~384.00 kbps avg

Код:

Общее
 Полное имя                               : H:\Gorod_poroka_2013_BDRip_MVO_by_Dalemake.avi
 Формат                                   : AVI
 Формат/Информация                        : Audio Video Interleave
 Размер файла                             : 1,46 Гбайт
 Продолжительность                        : 1 ч. 48 м.
 Общий поток                              : 1923 Кбит/сек
 Программа кодирования                    : VirtualDubMod 1.5.10.3 | www.virtualdub-fr.org || (build 2550/release)
 Библиотека кодирования                   : VirtualDubMod build 2550/release

Видео
 Идентификатор                            : 0
 Формат                                   : MPEG-4 Visual
 Профиль формата                          : Advanced Simple@L5
 Параметр BVOP формата                    : 1
 Параметр QPel формата                    : Нет
 Параметр GMC формата                     : Без точки перехода
 Параметр матрицы формата                 : Выборочная
 Идентификатор кодека                     : XVID
 Идентификатор кодека/Подсказка           : XviD
 Продолжительность                        : 1 ч. 48 м.
 Битрейт                                  : 1530 Кбит/сек
 Ширина                                   : 720 пикселей
 Высота                                   : 304 пикселя
 Соотношение сторон                       : 2,35:1
 Частота кадров                           : 23,976 кадра/сек
 Цветовое пространство                    : YUV
 Субдискретизация насыщенности            : 4:2:0
 Битовая глубина                          : 8 бит
 Тип развёртки                            : Прогрессивная
 Метод сжатия                             : С потерями
 Бит/(Пиксели*Кадры)                      : 0.292
 Размер потока                            : 1,16 Гбайт (80%)
 Библиотека кодирования                   : XviD 65

Аудио
 Идентификатор                            : 1
 Формат                                   : AC-3
 Формат/Информация                        : Audio Coding 3
 Расширение режима                        : CM (complete main)
 Параметр Endianness формата              : Big
 Идентификатор кодека                     : 2000
 Продолжительность                        : 1 ч. 48 м.
 Вид битрейта                             : Постоянный
 Битрейт                                  : 384 Кбит/сек
 Каналы                                   : 6 каналов
 Расположение каналов                     : Front: L C R, Side: L R, LFE
 Частота                                  : 48,0 КГц
 Битовая глубина                          : 16 бит
 Метод сжатия                             : С потерями
 Размер потока                            : 298 Мбайт (20%)
 Выравнивание                             : Разделение по промежуткам
 Продолжительность промежутка             : 42  мс. (1,00 видеокадр)
 Время предзагрузки промежутка            : 500  мс.

picpicpicpic
Для увеличения картинки щелкните мышкой по превью

Этот торрент недоступен для скачивания без регистрации, однако доступен по публичной magnet-ссылке (источники с публичных трекеров). Перед использованием ссылки прочтите, пожалуйста Пользовательское соглашение, а также как можно дольше оставайтесь на раздаче! Для того, чтобы скачать сам торрент-файл (который видит больше источников), а также для того, чтобы поблагодарить релизера, вам необходимо зарегистрироваться. Если регистрироваться лень - вы можете также попробовать скачать релиз по нашим партнерским ссылкам ниже.

[underverse.su].t26980.torrent
Трекер: Зарегистрирован   [ 03.05.2013 05:56 ]  

Статус: проверено (by Garnett at 03.05.2013 07:07)
Поблагодарили: 3 человека
Тип торрента: публичный - доступные источники с открытых трекеров: 
Размер: 1,46 GB (занимает 0,33 DVDR, для записи нужно 1 болванка DVDR/RW)
 
 
Похожие темы
Форум Тема Автор Торрент Отв. Посл. сооб.
T Зарубежное кино [DVDRip, Low-Res HDRip, и т.д.] Город порока / Broken City (Аллен Хьюз / Allen Hughes) [2013 г., триллер, драма, криминал, HDRip] VO [чистый звук] Gaarochi
10 | 0

0 | 391

6

11.04.2013 17:51

T Зарубежное кино [DVDRip, Low-Res HDRip, и т.д.] Город порока / Broken City (Аллен Хьюз / Allen Hughes) [2013 г., триллер, драма, криминал, HDRip] VO [чистый звук] + Eng 90ytr90
1 | 0

1 | 907

21

28.04.2013 16:17

T Зарубежное кино [HDDVDRip / BDRip / WEB-DL / HDTV 1080/720р] Город порока / Broken City (Аллен Хьюз) [2013 г., триллер, драма, криминал, BDRip 720p] DUB / Чистый звук + Original Печаль'ka
6 | 2

0 | 355

19

20.04.2013 20:39


Яндекс.Метрика powered by Sphinx


В Н И М А Н И Е
Сайт не распространяет и не хранит электронные версии произведений, а лишь бесплатно и без коммерческой выгоды (не требуя взамен платы,
SMS и т.д.) предоставляет доступ к создаваемому пользователями каталогу ссылок на торрент-файлы, которые содержат только списки хеш-сумм.
Убедительная просьба с жалобами обращаться напрямую к пользователю, разместившему торрент файл.

Вверх