Loading...
Error

Солдаты-17.Снова в строю / Серии: 1-20 [20] ( Владимир Тумаев, Роман Зимин) [2013 г., Комедия, SatRip]

Статистика раздачи
Размер:  10,77 GB   |    Зарегистрирован:  3 года 6 месяцев   |    Скачан:  5 раз

Полного источника не было: 2 года

Сидов:  0  |  0 KB/s  ]   Личеров:  0  |  0 KB/s  ]

* - сиды/пиры с внешних источников

   
 
Автор Сообщение

nemos Пол:Муж

02-Май-2013 15:55


Год выпуска: 2013
Жанр: Комедия
Страна: Россия
Режиссер: Владимир Тумаев, Роман Зимин
В ролях: Вячеслав Гришечкин, Роман Богданов, Андрей Зибров, Анатолий Кощеев, Иван Моховиков, Анатолий Кот, Валерий Маркин, Александр Никольский (II), Виталий Герасимов, Юрий Воробьев, Виктор Балабанов, Владимир Стеклов, Артём Волков, Анна Антонова, Игорь Гаспарян, Егор Николаев (II), Алексей Маклаков, Руслан Сасин, Антон Аносов, Игорь Дорофеев, Ростислав Гулбис, Андрей Булатов, Максим Шишков, Екатерина Бурылева, Анатолий Горячев, Филипп Бажин
В этом сезоне в армию возвращается Бутонов и Папазогло, солдаты сталкиваются с финансовыми проблемами, а также появляются новые персонажи, которых играют известный ведущий Алексей Куличков (программа Такси, российский вариант) и известный актер Виктор Логинов (Гена Букин).


Качество видео: SatRip

Продолжительность: 00:47:47 серия
Формат: AVI
Видео: XviD, 720x400, 1412 kbps
Аудио: русский, MP3 2.0, 192 kbps

Код:

F:\С underverse-3 Фильмы\Soldaty.17.SATRip.Getty\Soldaty17.01.SATRip.Getty.avi
   General
      Complete name : F:\С underverse-3 Фильмы\Soldaty.17.SATRip.Getty\Soldaty17.01.SATRip.Getty.avi
      Format : AVI
      Format/Info : Audio Video Interleave
      File size : 552 MiB
      Duration : 47mn 47s
      Overall bit rate : 1 614 Kbps
      Writing application : VirtualDubMod 1.5.10.3 (build 2550/release)
      Writing library : VirtualDubMod build 2550/release
   Video #0
      ID : 0
      Format : MPEG-4 Visual
      Format profile : Advanced Simple@L5
      Format settings, BVOP : 1
      Format settings, QPel : No
      Format settings, GMC : No warppoints
      Format settings, Matrix : Default (H.263)
      Muxing mode : Packed bitstream
      Codec ID : XVID
      Codec ID/Hint : XviD
      Duration : 47mn 47s
      Bit rate : 1 412 Kbps
      Width : 720 pixels
      Height : 400 pixels
      Display aspect ratio : 16:9
      Frame rate : 25.000 fps
      Color space : YUV
      Chroma subsampling : 4:2:0
      Bit depth : 8 bits
      Scan type : Progressive
      Compression mode : Lossy
      Bits/(Pixel*Frame) : 0.196
      Stream size : 483 MiB (88%)
      Writing library : XviD 64
   Audio #1
      ID : 1
      Format : MPEG Audio
      Format version : Version 1
      Format profile : Layer 3
      Mode : Joint stereo
      Mode extension : MS Stereo
      Codec ID : 55
      Codec ID/Hint : MP3
      Duration : 47mn 47s
      Bit rate mode : Constant
      Bit rate : 192 Kbps
      Channel(s) : 2 channels
      Sampling rate : 48.0 KHz
      Compression mode : Lossy
      Stream size : 65.6 MiB (12%)
      Alignment : Split accross interleaves
      Interleave, duration : 40 ms (1.00 video frame)
      Interleave, preload duration : 500 ms
      Writing library : LAME3.98.2
Семпл: http://multi-up.com/861401

Релиз группы:

picpicpicpicpicpicpicpicpicpicpicpicpicpicpicpicpicpicpic
Для увеличения картинки щелкните мышкой по превью
Сериал который был выложен и зарегистрирован более двух месяцев назад буду раздавать с 23.00ч до 06.00ч утра ( вина в этом не моя, а пользователей которые не поддерживают раздачу)

Этот торрент недоступен для скачивания без регистрации, однако доступен по публичной magnet-ссылке (источники с публичных трекеров). Перед использованием ссылки прочтите, пожалуйста Пользовательское соглашение, а также как можно дольше оставайтесь на раздаче! Для того, чтобы скачать сам торрент-файл (который видит больше источников), а также для того, чтобы поблагодарить релизера, вам необходимо зарегистрироваться. Если регистрироваться лень - вы можете также попробовать скачать релиз по нашим партнерским ссылкам ниже.

[underverse.su].t27756.torrent
Трекер: Зарегистрирован   [ 23.05.2013 18:02 ]  

Статус: проверено (by Чертёнок at 23.05.2013 18:21)
Поблагодарили: 4 человека
Тип торрента: публичный - доступные источники с открытых трекеров: 
Размер: 10,77 GB (занимает 2,46 DVDR, для записи нужно 3 болванки DVDR/RW)
 
 


Последний раз редактировалось: nemos (06.11.2014 11:25), всего редактировалось 8 раз(а)

nemos Пол:Муж

07-Май-2013 14:05

обновлена(20)

Яндекс.Метрика powered by Sphinx


В Н И М А Н И Е
Сайт не распространяет и не хранит электронные версии произведений, а лишь бесплатно и без коммерческой выгоды (не требуя взамен платы,
SMS и т.д.) предоставляет доступ к создаваемому пользователями каталогу ссылок на торрент-файлы, которые содержат только списки хеш-сумм.
Убедительная просьба с жалобами обращаться напрямую к пользователю, разместившему торрент файл.

Вверх