Loading...
Error

Пропавший без вести / Missing / Сезон 1 / Серии 1-10 (10) (Стив Шилл, Фил Абрахам, Пол А. Эдвардс) [2012 г., боевик, триллер, драма, HDTVRip] MVO

Статистика раздачи
Размер:  7,27 GB   |    Зарегистрирован:  3 года 7 месяцев   |    Скачан:  7 раз

Полного источника не было: 1 год 4 месяца

Сидов:  0  |  0 KB/s  ]   Личеров:  0  |  0 KB/s  ]

* - сиды/пиры с внешних источников

   
 
Автор Сообщение

M_Iron Пол:Муж

01-Май-2013 09:11

Пропавший без вести / Missing


Год выпуска: 2012
Жанр: боевик, триллер, драма
Страна: США , Чехия
Режиссер: Стив Шилл, Фил Абрахам, Пол А. Эдвардс
В ролях: Эшли Джадд, Клифф Кёртис, Адриано Джаннини, Ник Эверсман, Лаура Доннелли, Шон Бин, Тереза Воришкова, Кит Кэрредин, Джейсон Вонг, Джина МакКи
Сюжет фильма:
Основные события разворачиваются вокруг матери, которая беспокоится о сыне, пропавшем летом в Италии. Она решает поехать и вернуть его, во что бы то ни стало. Вскоре выясняется, что взволнованная мама — бывший агент ЦРУ…

Качество видео: HDTVRip

Продолжительность: 07:00:00
Формат: AVI
Видео: XviD, 688x384 (1.79:1), ~2219 kbps
Аудио: русский, многоголосый закадровый [профессиональный], AC3 2.0, 192 kbps

Код:

Формат                                   : AVI
Формат/Информация                        : Audio Video Interleave
Общий поток                              : 2478 Кбит/сек
Программа кодирования                    : VirtualDubMod 1.5.10.2 (build 2540/release)
Библиотека кодирования                   : VirtualDubMod build 2540/release

Видео
Идентификатор                            : 0
Формат                                   : MPEG-4 Visual
Профиль формата                          : Advanced Simple@L5
Параметр BVOP формата                    : 1
Параметр QPel формата                    : Нет
Параметр GMC формата                     : Без точки перехода
Параметр матрицы формата                 : Выборочная
Идентификатор кодека                     : XVID
Идентификатор кодека/Подсказка           : XviD
Битрейт                                  : 2277 Кбит/сек
Ширина                                   : 688 пикселей
Высота                                   : 384 пикселя
Соотношение сторон                       : 16:9
Частота кадров                           : 23,976 кадра/сек
Цветовое пространство                    : YUV
Субдискретизация насыщенности            : 4:2:0
Битовая глубина                          : 8 бит
Тип развёртки                            : Прогрессивная
Метод сжатия                             : С потерями
Бит/(Пиксели*Кадры)                      : 0.359
Размер потока                            : 678 Мбайт (92%)
Библиотека кодирования                   : XviD 1.2.1 (UTC 2008-12-04)

Аудио
Идентификатор                            : 1
Формат                                   : AC-3
Формат/Информация                        : Audio Coding 3
Расширение режима                        : CM (complete main)
Параметр Endianness формата              : Big
Идентификатор кодека                     : 2000
Продолжительность                        : 41 м.
Вид битрейта                             : Постоянный
Битрейт                                  : 192 Кбит/сек
Каналы                                   : 2 канала
Расположение каналов                     : Front: L R
Частота                                  : 48,0 КГц
Битовая глубина                          : 16 бит
Метод сжатия                             : С потерями
Размер потока                            : 57,2 Мбайт (8%)
Выравнивание                             : Соединение по промежуткам
Продолжительность промежутка             : 42  мс. (1,00 видеокадр)
Время предзагрузки промежутка            : 512  мс.
Семпл: http://www.divshare.com/download/24059071-6a0

picpicpicpicpic
picpicpicpicpic
Для увеличения картинки щелкните мышкой по превью

Этот торрент недоступен для скачивания без регистрации, однако доступен по публичной magnet-ссылке (источники с публичных трекеров). Перед использованием ссылки прочтите, пожалуйста Пользовательское соглашение, а также как можно дольше оставайтесь на раздаче! Для того, чтобы скачать сам торрент-файл (который видит больше источников), а также для того, чтобы поблагодарить релизера, вам необходимо зарегистрироваться. Если регистрироваться лень - вы можете также попробовать скачать релиз по нашим партнерским ссылкам ниже.

[underverse.su].t26923.torrent
Трекер: Зарегистрирован   [ 01.05.2013 09:11 ]  

Статус: проверено (by Чертёнок at 01.05.2013 09:29)
Поблагодарили: 1 человек
Тип торрента: публичный - доступные источники с открытых трекеров: 
Размер: 7,27 GB (занимает 1,66 DVDR, для записи нужно 2 болванки DVDR/RW)
 
 
Похожие темы
Форум Тема Автор Торрент Отв. Посл. сооб.
Зарубежное кино [DVDRip, Low-Res HDRip, и т.д.] Пропавший медальон / The Lost Medallion: The Adventures of Billy Stone (Билл Мьюир) [2013 г., приключения, HDRip] VO + Original 90ytr90
17 | 0

1 | 1357

39

29.09.2013 20:53

Зарубежное кино [DVDRip, Low-Res HDRip, и т.д.] Пропавший медальон / The Lost Medallion: The Adventures of Billy Stone (Билл Мьюир / Bill Muir) [2013, Приключения, HDRip] MVO viktor.r-79
0 | 0

0 | 673

17

23.10.2014 16:59

xUSSR сериалы Пропавший без вести [серии 01-04 (04)] (Артём Мазунов) [2013 г., детектив, криминал, SATRip] 90ytr90
1 | 0

1 | 1098

33

10.11.2013 16:52

Discovery Пропавший Боинг: в поисках слабого звена / Flight 370: The Missing Link / Zagadka lotu MH 370 (Discovery Channel) [2014 г., документальный, расследование, HDTVRip] VO + Eng + Pol 90ytr90
0 | 1

0 | 626

15

05.05.2014 15:21

d0lg0v4 Пол:Жен

25-Май-2013 04:23

Эшли Джадд это здорово она уже конечно взрослая но посмотрим...

Яндекс.Метрика powered by Sphinx


В Н И М А Н И Е
Сайт не распространяет и не хранит электронные версии произведений, а лишь бесплатно и без коммерческой выгоды (не требуя взамен платы,
SMS и т.д.) предоставляет доступ к создаваемому пользователями каталогу ссылок на торрент-файлы, которые содержат только списки хеш-сумм.
Убедительная просьба с жалобами обращаться напрямую к пользователю, разместившему торрент файл.

Вверх