Loading...
Error

Плохой 25 / Bad 25 [2012 г., Документальный, SatRip] Sub + Original

Статистика раздачи
Размер:  537 MB   |    Зарегистрирован:  3 года 7 месяцев   |    Скачан:  2 раза

Полного источника не было: 1 год 2 месяца

Сидов:  0  |  0 KB/s  ]   Личеров:  0  |  0 KB/s  ]

* - сиды/пиры с внешних источников

   
 
Автор Сообщение

Gaarochi Пол:Муж

01-Май-2013 08:07

Плохой 25 / Bad 25


Год выпуска: 2012
Жанр: Документальный
Страна: США
Режиссер: Спайк Ли / Spike Lee
В ролях: Майкл Джексон, Глен Баллард, Дженнифер Баттен, Джастин Бибер, Джим Блэшфилд, Джон Бранка, Мико С. Брандо, Крис Браун, Олли Е. Браун, Грегг Бёрдж.



Сюжет фильма:
Документальную лента, приуроченная к 25-летию выхода альбома Майкла Джексона «Bad» 1987 года. Картина подробно рассказывает о записи альбома «Bad», турне в его поддержку и съемках видео на синглы с пластинки. Фильм включает в себя архивные съемки и сопроводительные интервью с многочисленными музыкантами, сотрудничавшими с Джексоном.






Качество видео: SatRip
Продолжительность: 01:04:38
Формат: AVI
Видео: XviD, 672x512, 1027 kbps
Аудио: английский, оригинал, MP3 2.0, 128 kbps
Субтитры: тип: вшитые отключаемые, русский, формат: SRT

Релиз группы:

Код:

Общее
 Полное имя : D:\FILMS\Plohoj 25.SAT-rip.by.Твид.fenixclub.avi
 Формат : AVI
 Формат/Информация : Audio Video Interleave
 Размер файла : 537 Мбайт
 Продолжительность : 1 ч. 4 м.
 Общий поток : 1162 Кбит/сек
 Программа кодирования : VirtualDubMod 1.5.10.2 (build 2540/release)
 Библиотека кодирования : VirtualDub build 24463/release

Видео
 Идентификатор : 0
 Формат : MPEG-4 Visual
 Профиль формата : Advanced Simple@L5
 Параметр BVOP формата : 2
 Параметр QPel формата : Нет
 Параметр GMC формата : Без точки перехода
 Параметр матрицы формата : Default (H.263)
 Режим смешивания : Сжатый битовый поток
 Идентификатор кодека : XVID
 Идентификатор кодека/Подсказка : XviD
 Продолжительность : 1 ч. 4 м.
 Битрейт : 1024 Кбит/сек
 Ширина : 672 пикселя
 Высота : 512 пикселей
 Соотношение сторон : 4:3
 Частота кадров : 25,000 кадров/сек
 Цветовое пространство : YUV
 Субдискретизация насыщенности : 4:2:0
 Битовая глубина : 8 бит
 Тип развёртки : Прогрессивная
 Метод сжатия : С потерями
 Бит/(Пиксели*Кадры) : 0.119
 Размер потока : 473 Мбайт (88%)
 Библиотека кодирования : XviD 1.2.1 (UTC 2008-12-04)

Аудио
 Идентификатор : 1
 Формат : MPEG Audio
 Версия формата : Version 1
 Профиль формата : Layer 3
 Режим : Joint stereo
 Расширение режима : MS Stereo
 Идентификатор кодека : 55
 Идентификатор кодека/Подсказка : MP3
 Продолжительность : 1 ч. 4 м.
 Вид битрейта : Постоянный
 Битрейт : 128 Кбит/сек
 Каналы : 2 канала
 Частота : 48,0 КГц
 Метод сжатия : С потерями
 Размер потока : 59,2 Мбайт (11%)
 Выравнивание : Разделение по промежуткам
 Продолжительность промежутка : 40 мс. (1,00 видеокадр)
 Время предзагрузки промежутка : 500 мс.

picpicpic
Для увеличения картинки щелкните мышкой по превью

Этот торрент недоступен для скачивания без регистрации, однако доступен по публичной magnet-ссылке (источники с публичных трекеров). Перед использованием ссылки прочтите, пожалуйста Пользовательское соглашение, а также как можно дольше оставайтесь на раздаче! Для того, чтобы скачать сам торрент-файл (который видит больше источников), а также для того, чтобы поблагодарить релизера, вам необходимо зарегистрироваться. Если регистрироваться лень - вы можете также попробовать скачать релиз по нашим партнерским ссылкам ниже.

[underverse.su].t26922.torrent
Трекер: Зарегистрирован   [ 01.05.2013 08:07 ]  

Статус: проверено (by Печаль'ka at 01.05.2013 08:29)
Поблагодарили: пока никто не поблагодарил...
Тип торрента: публичный - доступные источники с открытых трекеров: 
Размер: 537 MB (занимает 0,12 DVDR, для записи нужно 1 болванка DVDR/RW)
 
 

Яндекс.Метрика powered by Sphinx


В Н И М А Н И Е
Сайт не распространяет и не хранит электронные версии произведений, а лишь бесплатно и без коммерческой выгоды (не требуя взамен платы,
SMS и т.д.) предоставляет доступ к создаваемому пользователями каталогу ссылок на торрент-файлы, которые содержат только списки хеш-сумм.
Убедительная просьба с жалобами обращаться напрямую к пользователю, разместившему торрент файл.

Вверх