Loading...
Error

Интервью. [2011, телепередача, TVRip]

Статистика раздачи
Размер:  485 MB   |    Зарегистрирован:  3 года 7 месяцев   |    Скачан:  0 раз

Полного источника не было: 2 года 3 месяца

Сидов:  0  |  0 KB/s  ]   Личеров:  0  |  0 KB/s  ]

* - сиды/пиры с внешних источников

   
 
Автор Сообщение

матроскин Пол:Муж

30-Апр-2013 16:32

Интервью.


Год выпуска: 2011
Жанр: документальный
Страна: Россия
Выпущено: ТВ канал Россия 24
Сюжет фильма:
Российские партии в летний период проводят заседания.конференции,где уточняют свои политические программы,обновляют кадровый резерв и намечают работу с гражданами. Как использует парламентские каникулы лидер КПРФ? Геннадий Андреевич Зюганов гость студии Россия 24,где пойдет интересный разговор.
Качество видео: TVRip

Продолжительность: 00:50:33
Формат: avi
Видео: XviD, 704x528, 1199 kbps
Аудио: русский, оригинал, MP3 2.0, 128 kbps

Код:

General
Complete name                    : C:\Users\Security\Videos\Мамонов\Intervyu TVRip 485 MB.avi
Format                           : AVI
Format/Info                      : Audio Video Interleave
File size                        : 485 MiB
Duration                         : 50mn 33s
Overall bit rate                 : 1 341 Kbps

Video
ID                               : 0
Format                           : MPEG-4 Visual
Format profile                   : Simple Streaming Video@L4
Format settings, BVOP            : No
Format settings, QPel            : No
Format settings, GMC             : No warppoints
Format settings, Matrix          : Default (H.263)
Codec ID                         : XVID
Codec ID/Hint                    : XviD
Duration                         : 50mn 33s
Bit rate                         : 1 200 Kbps
Width                            : 704 pixels
Height                           : 528 pixels
Display aspect ratio             : 4/3
Frame rate                       : 26.000 fps
Resolution                       : 24 bits
Colorimetry                      : 4:2:0
Scan type                        : Progressive
Bits/(Pixel*Frame)               : 0.124
Stream size                      : 434 MiB (89%)

Audio
ID                               : 1
Format                           : MPEG Audio
Format version                   : Version 1
Format profile                   : Layer 3
Codec ID                         : 55
Codec ID/Hint                    : MP3
Duration                         : 50mn 33s
Bit rate mode                    : Constant
Bit rate                         : 128 Kbps
Channel(s)                       : 2 channels
Sampling rate                    : 48.0 KHz
Resolution                       : 16 bits
Stream size                      : 46.3 MiB (10%)
Alignment                        : Split accross interleaves
Interleave, duration             : 24 ms (0.62 video frame)

picpicpicpicpicpic
Для увеличения картинки щелкните мышкой по превью

Этот торрент недоступен для скачивания без регистрации, однако доступен по публичной magnet-ссылке (источники с публичных трекеров). Перед использованием ссылки прочтите, пожалуйста Пользовательское соглашение, а также как можно дольше оставайтесь на раздаче! Для того, чтобы скачать сам торрент-файл (который видит больше источников), а также для того, чтобы поблагодарить релизера, вам необходимо зарегистрироваться. Если регистрироваться лень - вы можете также попробовать скачать релиз по нашим партнерским ссылкам ниже.

[underverse.su].t26910.torrent
Трекер: Зарегистрирован   [ 30.04.2013 16:32 ]  

Статус: проверено (by Чертёнок at 30.04.2013 16:37)
Поблагодарили: пока никто не поблагодарил...
Тип торрента: публичный - доступные источники с открытых трекеров: 
Размер: 485 MB (занимает 0,11 DVDR, для записи нужно 1 болванка DVDR/RW)
 
 

матроскин Пол:Муж

30-Апр-2013 16:34

Качайте и смотрите документальные телепередачи

Яндекс.Метрика powered by Sphinx


В Н И М А Н И Е
Сайт не распространяет и не хранит электронные версии произведений, а лишь бесплатно и без коммерческой выгоды (не требуя взамен платы,
SMS и т.д.) предоставляет доступ к создаваемому пользователями каталогу ссылок на торрент-файлы, которые содержат только списки хеш-сумм.
Убедительная просьба с жалобами обращаться напрямую к пользователю, разместившему торрент файл.

Вверх