Loading...
Error

Взрывы домов в 1999 году [2007, документальный, TVRip]

Статистика раздачи
Размер:  797 MB   |    Зарегистрирован:  3 года 7 месяцев   |    Скачан:  6 раз
Сидов:  1  |  0 KB/s  ]   Личеров:  0  |  0 KB/s  ]

* - сиды/пиры с внешних источников

   
 
Автор Сообщение

матроскин Пол:Муж

30-Апр-2013 16:07

Взрывы домов в 1999 году


Год выпуска: 2007
Жанр: документальный
Страна: Россия
Выпущено: Канал RTVI
Сюжет фильма:
Михаил Иванович Трепашкин - московский адвокат, бывший сотрудник КГБ и ФСБ. Эксперт Общественной Комиссии по расследованию взрывов домов в Москве и Волгодонске и событий в Рязани. Арестован 22 октября 2003 года, накануне заседания суда, где он планировал предъявить факты, которые могли дать основание утверждать о причастности спецслужб к организации взрывов жилых домов в сентябре 1999 года.Предлог для ареста - в его машине был обнаружен пистолет. Сам Трепашкин утверждает, что пистолет был подброшен. После незаконного задержания Трепашкин был помещен в пыточные условия: грязная камера 1,6х2 м, пытки голодом, холодом, лишением сна. 19 мая 2004 г. за незаконное хранение оружия и разглашение гостайны приговорен Московским окружным военным судом к 4 годам колонии-поселения.
Качество видео: TVRip

Продолжительность: 00:48:05
Формат: avi
Видео: DivX 4, 720x576, 2048 kbps
Аудио: русский, оригинал, MP3 2.0, 256 kbps

Код:

General
Complete name                    : C:\Users\Security\Videos\Мамонов\vzrivi domov v 1999 godu.avi
Format                           : AVI
Format/Info                      : Audio Video Interleave
File size                        : 797 MiB
Duration                         : 48mn 5s
Overall bit rate                 : 2 318 Kbps
Writing application              : Lavf52.93.0

Video
ID                               : 0
Format                           : MPEG-4 Visual
Format profile                   : Simple@L1
Format settings, BVOP            : No
Format settings, QPel            : No
Format settings, GMC             : No warppoints
Format settings, Matrix          : Default (H.263)
Codec ID                         : DIVX
Codec ID/Info                    : Project Mayo
Codec ID/Hint                    : DivX 4
Duration                         : 48mn 5s
Bit rate                         : 2 048 Kbps
Width                            : 720 pixels
Height                           : 576 pixels
Display aspect ratio             : 5/4
Frame rate                       : 29.970 fps
Standard                         : PAL
Resolution                       : 24 bits
Colorimetry                      : 4:2:0
Scan type                        : Progressive
Bits/(Pixel*Frame)               : 0.165
Stream size                      : 704 MiB (88%)
Writing library                  : Lavc52.108.0

Audio
ID                               : 1
Format                           : MPEG Audio
Format version                   : Version 1
Format profile                   : Layer 3
Codec ID                         : 55
Codec ID/Hint                    : MP3
Duration                         : 48mn 5s
Bit rate mode                    : Constant
Bit rate                         : 256 Kbps
Channel(s)                       : 2 channels
Sampling rate                    : 44.1 KHz
Resolution                       : 16 bits
Stream size                      : 88.0 MiB (11%)
Alignment                        : Aligned on interleaves
Interleave, duration             : 26 ms (0.78 video frame)
Writing library                  : LAME3.98.4

picpicpicpicpicpic
Для увеличения картинки щелкните мышкой по превью

Этот торрент недоступен для скачивания без регистрации, однако доступен по публичной magnet-ссылке (источники с публичных трекеров). Перед использованием ссылки прочтите, пожалуйста Пользовательское соглашение, а также как можно дольше оставайтесь на раздаче! Для того, чтобы скачать сам торрент-файл (который видит больше источников), а также для того, чтобы поблагодарить релизера, вам необходимо зарегистрироваться. Если регистрироваться лень - вы можете также попробовать скачать релиз по нашим партнерским ссылкам ниже.

[underverse.su].t26907.torrent
Трекер: Зарегистрирован   [ 30.04.2013 16:07 ]  

Статус: проверено (by Чертёнок at 30.04.2013 16:28)
Поблагодарили: 1 человек
Тип торрента: публичный - доступные источники с открытых трекеров: 
Размер: 797 MB (занимает 0,18 DVDR, для записи нужно 1 болванка DVDR/RW)
 
 

матроскин Пол:Муж

30-Апр-2013 16:08

Качайте и смотрите документальные телепередачи

ankat60 Пол:Муж

30-Апр-2013 18:09

Отличная раздача про "ельцинскую банду" и их последователей, которые постоянно плачут с телеэкрана как одному - плохо служилось Германии, будучи офицерами КГБ, а другому - как тяжело училось в Ленинграде ... :D

матроскин Пол:Муж

30-Апр-2013 18:32

ВСЕХ ПОЗДРАВЛЯЮ С ПРАЗДНИКОМ, С МЕЖДУНАРОДНЫМ ДНЕМ СОЛИДАРНОСТИ ТРУДЯЩИХСЯ!!!


Яндекс.Метрика powered by Sphinx


В Н И М А Н И Е
Сайт не распространяет и не хранит электронные версии произведений, а лишь бесплатно и без коммерческой выгоды (не требуя взамен платы,
SMS и т.д.) предоставляет доступ к создаваемому пользователями каталогу ссылок на торрент-файлы, которые содержат только списки хеш-сумм.
Убедительная просьба с жалобами обращаться напрямую к пользователю, разместившему торрент файл.

Вверх