Loading...
Error

Военная тайна с Игорем Прокопенко (эфир от 28.01.2013) [ документальный, TVRip]

Статистика раздачи
Размер:  1,38 GB   |    Зарегистрирован:  3 года 7 месяцев   |    Скачан:  5 раз

Полного источника не было: 7 месяцев

Сидов:  0  |  0 KB/s  ]   Личеров:  0  |  0 KB/s  ]

* - сиды/пиры с внешних источников

   
 
Автор Сообщение

матроскин Пол:Муж

30-Апр-2013 15:59

Военная тайна с Игорем Прокопенко (эфир от 28.01.2013)


Год выпуска: 2013
Жанр: документальный
Страна: Россия
Выпущено: Телеканал РЕН-ТВ
Ведущий: Игорь Прокопенко
Сюжет фильма:
В этом выпуске:
Амазонки в погонах: как зарабатывал женский полк отставного министра Сердюкова.
Падение черного ястреба: самая провальная спецоперация армии США.
Ураган: чудо оружие отечественных конструкторов.
Испепеляющий меч: удивительное изобретение древнего человека.
Забытые страницы истории: приключения морских рейдеров.
Запретная археология: почему ученые не могут разгадать загадку древних камней.
Оружейный салон: бронированные новинки.
Точечные удары: секреты победы.
Тайна воды: скрытая энергетика.
Город сокровищ: неизученная планета Земля.
Качество видео: TVRip

Продолжительность: 01:35:12
Формат: avi
Видео: DivX 4, 640x480, 711 kbps
Аудио: русский, оригинал, MP3 2.0, 256 kbps

Код:

General
Complete name                    : C:\Users\Security\Videos\Мамонов\(эфир от 2013.01.28).avi
Format                           : AVI
Format/Info                      : Audio Video Interleave
Format profile                   : OpenDML
File size                        : 1.38 GiB
Duration                         : 4h 0mn
Overall bit rate                 : 818 Kbps
Writing application              : Lavf52.93.0

Video
ID                               : 0
Format                           : MPEG-4 Visual
Format profile                   : Simple@L1
Format settings, BVOP            : No
Format settings, QPel            : No
Format settings, GMC             : No warppoints
Format settings, Matrix          : Default (H.263)
Codec ID                         : DIVX
Codec ID/Info                    : Project Mayo
Codec ID/Hint                    : DivX 4
Duration                         : 4h 0mn
Bit rate                         : 711 Kbps
Width                            : 640 pixels
Height                           : 480 pixels
Display aspect ratio             : 4/3
Frame rate                       : 25.000 fps
Resolution                       : 24 bits
Colorimetry                      : 4:2:0
Scan type                        : Progressive
Bits/(Pixel*Frame)               : 0.093
Stream size                      : 1.20 GiB (87%)
Writing library                  : Lavc52.108.0

Audio
ID                               : 1
Format                           : MPEG Audio
Format version                   : Version 1
Format profile                   : Layer 3
Codec ID                         : 55
Codec ID/Hint                    : MP3
Duration                         : 1h 35mn
Bit rate mode                    : Constant
Bit rate                         : 256 Kbps
Channel(s)                       : 2 channels
Sampling rate                    : 44.1 KHz
Resolution                       : 16 bits
Stream size                      : 174 MiB (12%)
Alignment                        : Aligned on interleaves
Interleave, duration             : 26 ms (0.65 video frame)
Writing library                  : LAME3.98.4

picpicpicpicpicpic
[color=gray]Для увеличения картинки щелкните мышкой по превью

Этот торрент недоступен для скачивания без регистрации, однако доступен по публичной magnet-ссылке (источники с публичных трекеров). Перед использованием ссылки прочтите, пожалуйста Пользовательское соглашение, а также как можно дольше оставайтесь на раздаче! Для того, чтобы скачать сам торрент-файл (который видит больше источников), а также для того, чтобы поблагодарить релизера, вам необходимо зарегистрироваться. Если регистрироваться лень - вы можете также попробовать скачать релиз по нашим партнерским ссылкам ниже.

[underverse.su].t26905.torrent
Трекер: Зарегистрирован   [ 30.04.2013 15:59 ]  

Статус: проверено (by Чертёнок at 30.04.2013 16:02)
Поблагодарили: пока никто не поблагодарил...
Тип торрента: публичный - доступные источники с открытых трекеров: 
Размер: 1,38 GB (занимает 0,31 DVDR, для записи нужно 1 болванка DVDR/RW)
 
 
Похожие темы
Форум Тема Автор Торрент Отв. Посл. сооб.
Другие фильмы Военная тайна. Евромайдан-спонсоры и режиссеры [2014 г., документальный, TVRip] матроскин
0 | 0

1 | 707

38

08.03.2014 14:22

Другие фильмы Военная тайна, эфир от 17.03.2014 г [ документальный, TVRip] матроскин
0 | 0

2 | 620

13

25.05.2014 11:17

Архив Военная тайна 1 часть [2009 г., документальный, SatRip] GanibalKing
0 | 0

1 | 3479

0

12.11.2010 23:48

Архив Военная тайна 2 часть [2009 г., документальный, SatRip] GanibalKing
0 | 0

1 | 1384

0

12.11.2010 23:48

Архив Военная тайна 3 часть [2009 г., документальный, SatRip] GanibalKing
0 | 0

1 | 1539

0

12.11.2010 23:48

матроскин Пол:Муж

30-Апр-2013 16:01

Качайте и смотрите документальные телепередачи

Яндекс.Метрика powered by Sphinx


В Н И М А Н И Е
Сайт не распространяет и не хранит электронные версии произведений, а лишь бесплатно и без коммерческой выгоды (не требуя взамен платы,
SMS и т.д.) предоставляет доступ к создаваемому пользователями каталогу ссылок на торрент-файлы, которые содержат только списки хеш-сумм.
Убедительная просьба с жалобами обращаться напрямую к пользователю, разместившему торрент файл.

Вверх