Loading...
Error

Треугольник. Александр Домогаров[2012, телепередача, TVRip]

Статистика раздачи
Размер:  429 MB   |    Зарегистрирован:  3 года 7 месяцев   |    Скачан:  0 раз

Полного источника не было: 3 года 1 месяц

Сидов:  0  |  0 KB/s  ]   Личеров:  0  |  0 KB/s  ]

* - сиды/пиры с внешних источников

   
 
Автор Сообщение

матроскин Пол:Муж

30-Апр-2013 15:37

Треугольник.Александр Домогаров.


Год выпуска: 2012
Жанр: документальный
Страна: Россия
Выпущено: 3 канал ТВ-Центр
Ведущие: Елена Родак, Анастасия Гребенкина
Сюжет фильма:
На третий канал ТВ-центр был приглашен артист театра и кино Александр Домогаров,который ответил на вопросы телеведущих Елены Родак и Анастасии Гребенкиной
Качество видео: TVRip

Продолжительность: 00:33:47
Формат: avi
Видео: DivX 4, 640x480, 1508 kbps
Аудио: русский, оригинал, MP3 2.0, 256 kbps

Код:

General
Complete name                    : C:\Users\Security\Videos\Мамонов\Aleksandr Domogarov (7 ноября 2012).avi
Format                           : AVI
Format/Info                      : Audio Video Interleave
File size                        : 429 MiB
Duration                         : 33mn 47s
Overall bit rate                 : 1 776 Kbps
Writing application              : Lavf52.93.0

Video
ID                               : 0
Format                           : MPEG-4 Visual
Format profile                   : Simple@L1
Format settings, BVOP            : No
Format settings, QPel            : No
Format settings, GMC             : No warppoints
Format settings, Matrix          : Default (H.263)
Codec ID                         : DIVX
Codec ID/Info                    : Project Mayo
Codec ID/Hint                    : DivX 4
Duration                         : 33mn 47s
Bit rate                         : 1 508 Kbps
Width                            : 640 pixels
Height                           : 480 pixels
Display aspect ratio             : 4/3
Frame rate                       : 25.000 fps
Resolution                       : 24 bits
Colorimetry                      : 4:2:0
Scan type                        : Progressive
Bits/(Pixel*Frame)               : 0.196
Stream size                      : 364 MiB (85%)
Writing library                  : Lavc52.108.0

Audio
ID                               : 1
Format                           : MPEG Audio
Format version                   : Version 1
Format profile                   : Layer 3
Codec ID                         : 55
Codec ID/Hint                    : MP3
Duration                         : 33mn 47s
Bit rate mode                    : Constant
Bit rate                         : 256 Kbps
Channel(s)                       : 2 channels
Sampling rate                    : 44.1 KHz
Resolution                       : 16 bits
Stream size                      : 61.9 MiB (14%)
Alignment                        : Aligned on interleaves
Interleave, duration             : 26 ms (0.65 video frame)
Writing library                  : LAME3.98.4

picpicpicpic
Для увеличения картинки щелкните мышкой по превью

Этот торрент недоступен для скачивания без регистрации, однако доступен по публичной magnet-ссылке (источники с публичных трекеров). Перед использованием ссылки прочтите, пожалуйста Пользовательское соглашение, а также как можно дольше оставайтесь на раздаче! Для того, чтобы скачать сам торрент-файл (который видит больше источников), а также для того, чтобы поблагодарить релизера, вам необходимо зарегистрироваться. Если регистрироваться лень - вы можете также попробовать скачать релиз по нашим партнерским ссылкам ниже.

[underverse.su].t26903.torrent
Трекер: Зарегистрирован   [ 30.04.2013 15:37 ]  

Статус: проверено (by Чертёнок at 30.04.2013 16:02)
Поблагодарили: пока никто не поблагодарил...
Тип торрента: публичный - доступные источники с открытых трекеров: 
Размер: 429 MB (занимает 0,1 DVDR, для записи нужно 1 болванка DVDR/RW)
 
 
Похожие темы
Форум Тема Автор Торрент Отв. Посл. сооб.
Информационно-аналитические передачи Треугольник. Зюганов Г.А. [2011, телепередача, TVRip] матроскин
0 | 0

1 | 616

0

03.05.2013 07:37

Архив Треугольник / Triangle (Кристофер Смит ) [2009 г., Ужасы, триллер, детектив , HD DVDRip] AntiVir
0 | 0

4 | 1598

8

05.11.2011 14:44

матроскин Пол:Муж

30-Апр-2013 15:38

Качайте и смотрите документальные телепередачи

Яндекс.Метрика powered by Sphinx


В Н И М А Н И Е
Сайт не распространяет и не хранит электронные версии произведений, а лишь бесплатно и без коммерческой выгоды (не требуя взамен платы,
SMS и т.д.) предоставляет доступ к создаваемому пользователями каталогу ссылок на торрент-файлы, которые содержат только списки хеш-сумм.
Убедительная просьба с жалобами обращаться напрямую к пользователю, разместившему торрент файл.

Вверх