Loading...
Error

Полный Альбац [2011, телепередача, TVRip]

Статистика раздачи
Размер:  769 MB   |    Зарегистрирован:  3 года 7 месяцев   |    Скачан:  0 раз

Полного источника не было: 3 года 1 месяц

Сидов:  0  |  0 KB/s  ]   Личеров:  0  |  0 KB/s  ]

* - сиды/пиры с внешних источников

   
 
Автор Сообщение

матроскин Пол:Муж

30-Апр-2013 14:36

Полный Альбац


Год выпуска: 2011
Страна: Россия
Выпущено: Радиокомпания "Эхо Москвы"
Сюжет фильма:
В студию радиокомпании "Эхо Москвы" был приглашен блогер Алексей Навальный, который рассказал о беспределе действующей власти и о том, что была вскрыта его интернет почта. Вопросы блогеру Алексею Навальному задавала ведущая программы Альбац Е.М.
Качество видео: TVRip

Продолжительность: 00:46:25
Формат: avi
Видео: DivX 4, 720x480, 2048 kbps
Аудио: русский, оригинал, MP3 2.0, 256 kbps

Код:

General
Complete name                    : C:\Users\Security\Videos\Мамонов\Навальный, «Эхо Москвы», «Полный Альбац», 31.10.2011.avi
Format                           : AVI
Format/Info                      : Audio Video Interleave
File size                        : 769 MiB
Duration                         : 46mn 25s
Overall bit rate                 : 2 316 Kbps
Writing application              : Lavf52.93.0

Video
ID                               : 0
Format                           : MPEG-4 Visual
Format profile                   : Simple@L1
Format settings, BVOP            : No
Format settings, QPel            : No
Format settings, GMC             : No warppoints
Format settings, Matrix          : Default (H.263)
Codec ID                         : DIVX
Codec ID/Info                    : Project Mayo
Codec ID/Hint                    : DivX 4
Duration                         : 46mn 25s
Bit rate                         : 2 048 Kbps
Width                            : 720 pixels
Height                           : 480 pixels
Display aspect ratio             : 1.500
Frame rate                       : 25.000 fps
Standard                         : NTSC
Resolution                       : 24 bits
Colorimetry                      : 4:2:0
Scan type                        : Progressive
Bits/(Pixel*Frame)               : 0.237
Stream size                      : 680 MiB (88%)
Writing library                  : Lavc52.108.0

Audio
ID                               : 1
Format                           : MPEG Audio
Format version                   : Version 1
Format profile                   : Layer 3
Codec ID                         : 55
Codec ID/Hint                    : MP3
Duration                         : 46mn 25s
Bit rate mode                    : Constant
Bit rate                         : 256 Kbps
Channel(s)                       : 2 channels
Sampling rate                    : 44.1 KHz
Resolution                       : 16 bits
Stream size                      : 85.0 MiB (11%)
Alignment                        : Aligned on interleaves
Interleave, duration             : 26 ms (0.65 video frame)
Writing library                  : LAME3.98.4

picpicpicpicpicpic
Для увеличения картинки щелкните мышкой по превью

Этот торрент недоступен для скачивания без регистрации, однако доступен по публичной magnet-ссылке (источники с публичных трекеров). Перед использованием ссылки прочтите, пожалуйста Пользовательское соглашение, а также как можно дольше оставайтесь на раздаче! Для того, чтобы скачать сам торрент-файл (который видит больше источников), а также для того, чтобы поблагодарить релизера, вам необходимо зарегистрироваться. Если регистрироваться лень - вы можете также попробовать скачать релиз по нашим партнерским ссылкам ниже.

[underverse.su].t26893.torrent
Трекер: Зарегистрирован   [ 30.04.2013 14:36 ]  

Статус: проверено (by Чертёнок at 30.04.2013 16:00)
Поблагодарили: пока никто не поблагодарил...
Тип торрента: публичный - доступные источники с открытых трекеров: 
Размер: 769 MB (занимает 0,17 DVDR, для записи нужно 1 болванка DVDR/RW)
 
 

матроскин Пол:Муж

30-Апр-2013 14:39

Качайте и смотрите документальные телепередачи

Яндекс.Метрика powered by Sphinx


В Н И М А Н И Е
Сайт не распространяет и не хранит электронные версии произведений, а лишь бесплатно и без коммерческой выгоды (не требуя взамен платы,
SMS и т.д.) предоставляет доступ к создаваемому пользователями каталогу ссылок на торрент-файлы, которые содержат только списки хеш-сумм.
Убедительная просьба с жалобами обращаться напрямую к пользователю, разместившему торрент файл.

Вверх