Loading...
Error

Совершенно секретно. Президентские выборы-2012 [2012, телепередача, TVRip]

Статистика раздачи
Размер:  917 MB   |    Зарегистрирован:  3 года 7 месяцев   |    Скачан:  6 раз
Сидов:  1  |  0 KB/s  ]   Личеров:  0  |  0 KB/s  ]

* - сиды/пиры с внешних источников

   
 
Автор Сообщение

матроскин Пол:Муж

30-Апр-2013 14:13

Совершенно секретно. Президентские выборы-2012


Год выпуска: 2012
Жанр: документальный
Страна: Россия
Выпущено: ЗАО ТК "Совершенно секретно"
Сюжет фильма:
В студию на телеканал "Совершенно секретно" приглашен писатель Михаил Веллер, который отвечал на вопросы ведущего программы "Совершенно секретно"Леонида Велихова. Разговор шел о Российском властном тандеме.
Качество видео: TVRip

Продолжительность: 01:03:49
Формат: avi
Видео: DivX 4, 720x576, 1740 kbps
Аудио: русский, оригинал, MP3 2.0, 256 kbps

Код:

General
Complete name                    : C:\Users\Security\Videos\Мамонов\Совершенно Секретно - XXI век. Михаил Веллер..avi
Format                           : AVI
Format/Info                      : Audio Video Interleave
File size                        : 917 MiB
Duration                         : 1h 3mn
Overall bit rate                 : 2 009 Kbps
Writing application              : Lavf52.93.0

Video
ID                               : 0
Format                           : MPEG-4 Visual
Format profile                   : Simple@L1
Format settings, BVOP            : No
Format settings, QPel            : No
Format settings, GMC             : No warppoints
Format settings, Matrix          : Default (H.263)
Codec ID                         : DIVX
Codec ID/Info                    : Project Mayo
Codec ID/Hint                    : DivX 4
Duration                         : 1h 3mn
Bit rate                         : 1 741 Kbps
Width                            : 720 pixels
Height                           : 576 pixels
Display aspect ratio             : 5/4
Frame rate                       : 25.000 fps
Standard                         : PAL
Resolution                       : 24 bits
Colorimetry                      : 4:2:0
Scan type                        : Progressive
Bits/(Pixel*Frame)               : 0.168
Stream size                      : 795 MiB (87%)
Writing library                  : Lavc52.108.0

Audio
ID                               : 1
Format                           : MPEG Audio
Format version                   : Version 1
Format profile                   : Layer 3
Codec ID                         : 55
Codec ID/Hint                    : MP3
Duration                         : 1h 3mn
Bit rate mode                    : Constant
Bit rate                         : 256 Kbps
Channel(s)                       : 2 channels
Sampling rate                    : 44.1 KHz
Resolution                       : 16 bits
Stream size                      : 117 MiB (13%)
Alignment                        : Aligned on interleaves
Interleave, duration             : 26 ms (0.65 video frame)
Writing library                  : LAME3.98.4

picpicpicpicpicpic
Для увеличения картинки щелкните мышкой по превью

Этот торрент недоступен для скачивания без регистрации, однако доступен по публичной magnet-ссылке (источники с публичных трекеров). Перед использованием ссылки прочтите, пожалуйста Пользовательское соглашение, а также как можно дольше оставайтесь на раздаче! Для того, чтобы скачать сам торрент-файл (который видит больше источников), а также для того, чтобы поблагодарить релизера, вам необходимо зарегистрироваться. Если регистрироваться лень - вы можете также попробовать скачать релиз по нашим партнерским ссылкам ниже.

[underverse.su].t26889.torrent
Трекер: Зарегистрирован   [ 30.04.2013 14:13 ]  

Статус: проверено (by Печаль'ka at 30.04.2013 14:18)
Поблагодарили: 2 человека
Тип торрента: публичный - доступные источники с открытых трекеров: 
Размер: 917 MB (занимает 0,2 DVDR, для записи нужно 1 болванка DVDR/RW)
 
 
Похожие темы
Форум Тема Автор Торрент Отв. Посл. сооб.
Информационно-аналитические передачи Совершенно секретно. Серые кардиналы: Александр Руцкой [2007, телепередача, TVRip] матроскин
0 | 0

1 | 685

0

27.04.2013 12:11

Информационно-аналитические передачи Совершенно секретно. XXI век. Артем Боровик. 10 лет спустя (Ольга Грачева) [2010 г., документальная телепередача, расследование, TVRip] ARI71
1 | 0

0 | 653

1

28.07.2016 11:17

Другие фильмы Совершенно секретно. Александр Зиновьев [1994 г., документальный, TVRip] матроскин
0 | 0

1 | 540

9

27.04.2013 09:34

Другие фильмы Совершенно секретно. Дедовщина [1998, документальный, VHSRip] матроскин
0 | 0

1 | 650

7

30.04.2013 13:51

Другие фильмы Совершенно секретно. Спецслужбы олигархов [2007, документальный, TVRip] матроскин
0 | 0

1 | 501

8

30.04.2013 15:18

Другие фильмы Совершенно секретно. Рос пильное дело [2011, телепередача, TVRip] матроскин
0 | 0

1 | 1084

0

30.04.2013 15:28

матроскин Пол:Муж

30-Апр-2013 14:15

Качайте и смотрите документальные телепередачи

Яндекс.Метрика powered by Sphinx


В Н И М А Н И Е
Сайт не распространяет и не хранит электронные версии произведений, а лишь бесплатно и без коммерческой выгоды (не требуя взамен платы,
SMS и т.д.) предоставляет доступ к создаваемому пользователями каталогу ссылок на торрент-файлы, которые содержат только списки хеш-сумм.
Убедительная просьба с жалобами обращаться напрямую к пользователю, разместившему торрент файл.

Вверх